[ Сегодня идет свободное скачивание без начисления Download ]


Статистика раздачи
Нет
 
   
 
Top  
 
 
Орда
Страна: Россия
Студия: Министерство культуры Российской Федерации, Православная Энциклопедия
Жанр: драма, исторический
Год выпуска: 2012
Продолжительность: 02:09:26
Перевод: Не требуется
Cубтитры: нет
Оригинальная аудиодорожка: русский
Режиссер: Андрей Прошкин
В ролях: Максим Суханов, Роза Хайруллина, Иннокентий Дакаяров, Александр Яценко, Виталий Хаев, Алексей Егоров, Федот Львов, Андрей Панин, Алексей Шевченков, Моге Ооржак, Юнчен Жуань
Описание: Орда. Веками это слово означало кровавые набеги и унизительную дань для многих стран и народов. Странный и страшный мир со своими законами и обычаями. В середине XIV века власть Орды простирается над большей частью Евразии. Платит дань восточному соседу и Московское княжество...
Столица Золотой Орды город Сарай-Бату. Тайдула, мать хана Джанибека, внезапно ослепла. Всевозможные лекари, знахари и шаманы безрезультатно пытались вернуть ей зрение. До Орды дошли слухи о московском митрополите Алексии, по молитвам которого творятся чудеса. В Москву прибывают ханские послы и просят, чтобы «чудесный старик» поехал с ними в Орду и вылечил ханшу, грозя в случае отказа набегом. Под угрозой уничтожения Москвы по просьбе великого князя Ивана Ивановича Алексий вынужден отправиться в далёкое путешествие. Его сопровождает келейник Федька. Прибыв в Орду, они оказываются в сложном переплетении восточных интриг, неожиданных и жестоких событий.
Доп. информация: «Орда» (рабочее название — «Святитель Алексий») — художественный фильм режиссёра Андрея Прошкина по сценарию Юрия Арабова, действие которого происходит в Золотой Орде. Фильм продюсировала кинотелекомпания «Православная энциклопедия», которая входит в одноимённый церковно-научный центр.
Релиз на Blu-Ray в России 18 октября 2012, «Вольга»

Интересные факты

Съёмки проходили с середины июня до начала декабря 2010 года с перерывами. Для фильма было сшито более тысячи костюмов, построены натурные декорации Москвы XIV века и столицы Золотой Орды — Сарай-Бату. Создатели фильма консультировались с учеными-историками, изучали музейные экспозиции, живопись того времени, историю костюма, планы археологических раскопок.
На пресс-конференции после показа фильма на 34-м ММКФ режиссёр Прошкин сказал, что создатели не ставили целью создание скрупулезной исторической картины, а отталкивались от ремарки в сценарии: «Показался глиняный город, которого уже никогда не будет на земле, а может, никогда и не было». Режиссёр подчеркнул, что снимался некий миф, в фильме есть мотивы ордынские, там есть мотивы азиатские и африканские, но главное, там фантазия художников, перед которыми ставилась задача не быть реалистами, не копировать какие-то вещи, а использовать фантазию, создавать новое, отталкиваясь от реальности. Столица Золотой Орды предстаёт неким почти марсианским для нашего глаза городом.
Герои фильма говорят на карачаево-балкарском языке, близком к среднекыпчакскому, на котором в XIV веке говорили в Золотой Орде. Консультации при переводе текста оказывали балкарские деятели культуры Музафар и Фатимат Таукеновы. За тем, чтобы актёры во время съёмок и озвучивания правильно произносили текст, следили переводчики.

Награды и номинации

Золотой орел, 2013 год
Победитель (5):
Лучший режиссер (Андрей Прошкин)
Лучший сценарий
Лучшая работа оператора
Лучшая работа художника-постановщика
Лучшие костюмы
Номинации (7):
Лучший фильм
Лучшая женская роль (Роза Хайруллина)
Лучшая мужская роль (Максим Суханов)
Лучшая мужская роль второго плана (Андрей Панин)
Лучшая музыка
Лучший монтаж
Лучшая работа звукорежиссера
ММКФ, 2012 год
Победитель (2):
Лучшая женская роль - Серебряный «Святой Георгий» (Роза Хайруллина)
Лучший режиссер - Серебряный «Святой Георгий» (Андрей Прошкин)
Номинации (1):
Приз за лучший фильм - Золотой «Святой Георгий»
Сэмпл: http://www.sendspace.com/file/wtwwam
Тип релиза: BDRip 1080p
Контейнер: MKV
Видео: MPEG-4 AVC/H.264, 1920x816, 2,35:1, 24,000 кадра/сек, 10899 kbps
Аудио: AC3 5.1, 640 kbps, 6ch, 48.0 KHz (лицензия)

MediaInfo

Общее
Уникальный идентификатор : 243225553738728686707029744747799568315 (0xB6FB89A7EC66F21486E949678872DFBB)
Полное имя : D:\Orda.(2012).1080p.BDRip.mkv
Формат : Matroska
Версия формата : Version 2
Размер файла : 10,4 Гбайт
Продолжительность : 2 ч. 9 м.
Общий поток : 11,5 Мбит/сек
Дата кодирования : UTC 2013-02-11 17:20:35
Программа кодирования : mkvmerge v5.8.0 ('No Sleep / Pillow') built on Sep 2 2012 15:37:04
Библиотека кодирования : libebml v1.2.3 + libmatroska v1.3.0
Видео
Идентификатор : 1
Формат : AVC
Формат/Информация : Advanced Video Codec
Профиль формата : [email protected]
Параметр CABAC формата : Да
Параметр ReFrames формата : 4 кадра
Идентификатор кодека : V_MPEG4/ISO/AVC
Продолжительность : 2 ч. 9 м.
Битрейт : 10,9 Мбит/сек
Ширина : 1920 пикселей
Высота : 816 пикселей
Соотношение сторон : 2,35:1
Режим частоты кадров : Постоянный
Частота кадров : 24,000 кадра/сек
Цветовое пространство : YUV
Субдискретизация насыщенности : 4:2:0
Битовая глубина : 8 бит
Тип развёртки : Прогрессивная
Бит/(Пиксели*Кадры) : 0.290
Размер потока : 9,65 Гбайт (92%)
Библиотека кодирования : x264 core 125 r2200 999b753
Настройки программы : cabac=1 / ref=4 / deblock=1:-3:-3 / analyse=0x3:0x133 / me=umh / subme=9 / psy=1 / psy_rd=1.00:0.15 / mixed_ref=1 / me_range=46 / chroma_me=1 / trellis=2 / 8x8dct=1 / cqm=0 / deadzone=21,11 / fast_pskip=1 / chroma_qp_offset=-3 / threads=6 / lookahead_threads=1 / sliced_threads=0 / nr=0 / decimate=1 / interlaced=0 / bluray_compat=0 / constrained_intra=0 / bframes=3 / b_pyramid=2 / b_adapt=2 / b_bias=0 / direct=3 / weightb=1 / open_gop=0 / weightp=2 / keyint=240 / keyint_min=24 / scenecut=40 / intra_refresh=0 / rc_lookahead=40 / rc=2pass / mbtree=1 / bitrate=10899 / ratetol=1.0 / qcomp=0.60 / qpmin=10 / qpmax=51 / qpstep=4 / cplxblur=20.0 / qblur=0.5 / ip_ratio=1.40 / aq=1:1.00
Язык : Russian
Default : Да
Forced : Нет
Аудио
Идентификатор : 2
Формат : AC-3
Формат/Информация : Audio Coding 3
Расширение режима : CM (complete main)
Параметр Endianness формата : Big
Идентификатор кодека : A_AC3
Продолжительность : 2 ч. 9 м.
Вид битрейта : Постоянный
Битрейт : 640 Кбит/сек
Каналы : 6 каналов
Расположение каналов : Front: L C R, Side: L R, LFE
Частота : 48,0 КГц
Битовая глубина : 16 бит
Метод сжатия : С потерями
Размер потока : 593 Мбайт (6%)
Язык : Russian
Default : Да
Forced : Нет
Меню
00:00:00.000 : :Chapter 01
00:01:07.708 : :Chapter 02
00:01:18.708 : :Chapter 03
00:17:05.708 : :Chapter 04
00:32:55.708 : :Chapter 05
00:48:34.125 : :Chapter 06
01:03:39.000 : :Chapter 07
01:20:22.541 : :Chapter 08
01:34:06.666 : :Chapter 09
01:54:23.041 : :Chapter 10

Скриншоты

[Цитировать]



Показать сообщения:    

Текущее время: 06-Дек 21:00

Часовой пояс: UTC + 3


Вы не можете начинать темы
Вы не можете отвечать на сообщения
Вы не можете редактировать свои сообщения
Вы не можете удалять свои сообщения
Вы не можете голосовать в опросах
Вы не можете прикреплять файлы к сообщениям
Вы не можете скачивать файлы

!ВНИМАНИЕ!
Сайт не предоставляет электронные версии произведений, а занимается лишь коллекционированием и каталогизацией ссылок, присылаемых и публикуемых на форуме нашими читателями. Если вы являетесь правообладателем какого-либо представленного материала и не желаете, чтобы ссылка на него находилась в нашем каталоге, свяжитесь с нами, и мы незамедлительно удалим ее. Файлы для обмена на трекере предоставлены пользователями сайта, и администрация не несет ответственности за их содержание. Просьба не заливать файлы, защищенные авторскими правами, а также файлы нелегального содержания!