[ Сегодня идет свободное скачивание без начисления Download ]


Статистика раздачи
Нет
 
   
 
Top  
 
 
Мудрость крокодилов / The Wisdom of Crocodiles Страна: Великобритания
Студия: Zenith Entertainment, Goldwyn Films, Arts Council of England, Entertainment Film Distributors Ltd.
Жанр: триллер, мелодрама, криминал, детектив
Год выпуска: 1998
Продолжительность: 01:39:15
Перевод: Профессиональный (многоголосый закадровый) [DVD R5]
Cубтитры: английские
Оригинальная аудиодорожка: английский
Режиссер: По-Чин Леонг / Po-Chih Leong
В ролях: Джуд Лоу, Элина Ловенсон, Тимоти Сполл, Джек Девенпорт, Колин Сэлмон, Керри Фокс, Стюарт Боуман, С.Дж. Десембер, Анастасия Хилл, Джозеф О’Конор, Эшли Артус
Описание: Загадочному и неотразимому Стивену нужна кровь молодых женщин, чтобы жить. В ней он ищет сущность любви, без этого ингредиента он обречен на медленную гибель.
Он — современный вампир в бесконечных поисках своей единственной возлюбленной. Юные красавицы бессильны перед его чарами, но Стивену нужна та, кто будет любить его беззаветно и страстно.
Когда в жизни Стивена появляется Анна, его чувства впервые находят ответ в ее трепетном сердце, но Анна еще не знает, что своим избранницам в обмен на любовь Стивен может предложить лишь жестокую смерть…
Доп. информация:
Исходник неизвестен. Рип с аглицкого трекера. Русскую дорожку подогнал от DVD5 PAL [Bepx]

Тип релиза: BDRip 720p
Контейнер: MKV
Видео: MPEG-4 AVC Video, 1280x688 / 1,85:1 (16:9) / 4794 kbps / 23,976 fps / [email protected] / 2pass
Аудио 1: Russian: AC3, 6 ch, 384 kbps, 48 kHz
Аудио 2: English: DTS, 2.0 ch, 24 bit, 1509 kbps, 48 kHz
Формат субтитров: softsub (SRT)
Главы

MediaInfo

Общее
Уникальный идентификатор : 245693098547420604303533022666779161641 (0xB8D6C50206DAC4FEA98BE2D553767429)
Полное имя : Мудрость крокодилов 1998.BDRip.720p.ПМ.Eng.mkv
Формат : Matroska
Версия формата : Version 4 / Version 2
Размер файла : 4,64 Гбайт
Продолжительность : 1 ч. 39 м.
Общий поток : 6686 Кбит/сек
Название фильма : The Wisdom of Crocodiles (1998)
Дата кодирования : UTC 2013-02-15 17:18:30
Программа кодирования : mkvmerge v6.0.0 ('Coming Up For Air') built on Jan 20 2013 09:52:00
Библиотека кодирования : libebml v1.3.0 + libmatroska v1.4.0
Видео
Идентификатор : 1
Формат : AVC
Формат/Информация : Advanced Video Codec
Профиль формата : [email protected]
Параметр CABAC формата : Да
Параметр ReFrames формата : 5 кадров
Идентификатор кодека : V_MPEG4/ISO/AVC
Продолжительность : 1 ч. 39 м.
Битрейт : 4794 Кбит/сек
Ширина : 1280 пикселей
Высота : 688 пикселей
Соотношение сторон : 1,85:1
Режим частоты кадров : Постоянный
Частота кадров : 23,976 кадра/сек
Цветовое пространство : YUV
Субдискретизация насыщенности : 4:2:0
Битовая глубина : 8 бит
Тип развёртки : Прогрессивная
Бит/(Пиксели*Кадры) : 0.227
Размер потока : 3,23 Гбайт (70%)
Библиотека кодирования : x264 core 129 r2230 1cffe9f
Настройки программы : cabac=1 / ref=5 / deblock=1:0:0 / analyse=0x3:0x113 / me=umh / subme=8 / psy=1 / psy_rd=1.00:0.00 / mixed_ref=1 / me_range=16 / chroma_me=1 / trellis=1 / 8x8dct=1 / cqm=0 / deadzone=21,11 / fast_pskip=1 / chroma_qp_offset=-2 / threads=12 / lookahead_threads=2 / sliced_threads=0 / nr=0 / decimate=1 / interlaced=0 / bluray_compat=0 / constrained_intra=0 / bframes=3 / b_pyramid=2 / b_adapt=2 / b_bias=0 / direct=3 / weightb=1 / open_gop=0 / weightp=2 / keyint=240 / keyint_min=24 / scenecut=40 / intra_refresh=0 / rc_lookahead=50 / rc=2pass / mbtree=1 / bitrate=4794 / ratetol=1.0 / qcomp=0.60 / qpmin=0 / qpmax=69 / qpstep=4 / cplxblur=20.0 / qblur=0.5 / ip_ratio=1.40 / aq=1:1.00
Язык : English
Default : Да
Forced : Нет
Аудио #1
Идентификатор : 2
Формат : AC-3
Формат/Информация : Audio Coding 3
Расширение режима : CM (complete main)
Параметр Endianness формата : Big
Идентификатор кодека : A_AC3
Продолжительность : 1 ч. 39 м.
Вид битрейта : Постоянный
Битрейт : 384 Кбит/сек
Каналы : 6 каналов
Расположение каналов : Front: L C R, Side: L R, LFE
Частота : 48,0 КГц
Битовая глубина : 16 бит
Метод сжатия : С потерями
Размер потока : 273 Мбайт (6%)
Заголовок : AC3 6ch 384kbps - многоголосый (DVD R5)
Язык : Russian
Default : Да
Forced : Нет
Аудио #2
Идентификатор : 3
Формат : DTS
Формат/Информация : Digital Theater Systems
Режим : 16
Параметр Endianness формата : Big
Идентификатор кодека : A_DTS
Продолжительность : 1 ч. 39 м.
Вид битрейта : Постоянный
Битрейт : 1509 Кбит/сек
Каналы : 2 канала
Расположение каналов : Front: L R
Частота : 48,0 КГц
Битовая глубина : 24 бит
Метод сжатия : С потерями
Размер потока : 1,05 Гбайт (23%)
Заголовок : DTS 2.0ch 24bit 1510kbps - original
Язык : English
Default : Нет
Forced : Нет
Текст
Идентификатор : 4
Формат : UTF-8
Идентификатор кодека : S_TEXT/UTF8
Идентификатор кодека/Информация : UTF-8 Plain Text
Язык : English
Default : Нет
Forced : Нет
Меню
00:00:00.000 : en:00:00:00.000
00:06:26.428 : en:00:06:26.428
00:15:23.923 : en:00:15:23.923
00:23:16.103 : en:00:23:16.103
00:31:44.861 : en:00:31:44.861
00:40:18.249 : en:00:40:18.249
00:51:14.780 : en:00:51:14.780
01:01:02.701 : en:01:01:02.701
01:12:04.946 : en:01:12:04.946
01:15:31.318 : en:01:15:31.318
01:25:12.107 : en:01:25:12.107
01:35:46.449 : en:01:35:46.449

-

Скриншот с названием фильма

[Цитировать]



Показать сообщения:    

Текущее время: 05-Дек 11:30

Часовой пояс: UTC + 3


Вы не можете начинать темы
Вы не можете отвечать на сообщения
Вы не можете редактировать свои сообщения
Вы не можете удалять свои сообщения
Вы не можете голосовать в опросах
Вы не можете прикреплять файлы к сообщениям
Вы не можете скачивать файлы

!ВНИМАНИЕ!
Сайт не предоставляет электронные версии произведений, а занимается лишь коллекционированием и каталогизацией ссылок, присылаемых и публикуемых на форуме нашими читателями. Если вы являетесь правообладателем какого-либо представленного материала и не желаете, чтобы ссылка на него находилась в нашем каталоге, свяжитесь с нами, и мы незамедлительно удалим ее. Файлы для обмена на трекере предоставлены пользователями сайта, и администрация не несет ответственности за их содержание. Просьба не заливать файлы, защищенные авторскими правами, а также файлы нелегального содержания!