[ Сегодня идет свободное скачивание без начисления Download ]


Статистика раздачи
Нет
 
   
 
Top  
 
 
-Озеро страха 4 / Lake Placid: The Final Chapter (2012) DVDRip- Русское название: Озеро страха 4
Оригинальное название: Lake Placid: The Final Chapter
Производство: США
Год выпуска: 2012
Жанр: Ужасы
Описание фильма:
Риба (Янси Батлер), выжившая в последней схватке с крокодилами и превратившаяся с тех пор в бравую охотницу, оказывает содействие властям в дальнейшей борьбе с рептилиями. Вокруг озера возводят электрифицированное ограждение, но даже его недостаточно, чтобы изолировать опасную зону: за забор проникает развлекающаяся молодёжная компания, да и браконьеры (среди которых герой Роберта Инглунда) не упустят подвернувшегося шанса подзаработать.
Режиссер: Дон Майкл Пол
Актеры: Элизабет Рём, Янси Батлер, Пол Николлс, Поппи Ли Фрайер, Бенедикт Смит, Роберт Инглунд, Кэролайн Форд, Скарлет Бирн, Дэниэл Блэк, Джефф Стюарт
Продолжительность: 01:30:12
Перевод: Любительский (одноголосый) [schemer]
Субтитры: Отсутствуют

Дата мировой премьеры: 29 сентября 2012
Формат: Audio Video Interleave
Видео кодек: XviD MPEG-4 Visual
Аудио кодек: MPEG Layer 3
Видео: 720x384 (1.88:1), 23.976 fps, XviD build 50 ~1721 kbps avg, 0.26 bit/pixel
Аудио: 48.00 kHz, MPEG Layer 3, 2 ch, ~128.00 kbps avg

MediaInfo

Общее
Полное имя : D:\Торренты\Озеро страха 4.2012.DVDRip.avi
Формат : AVI
Формат/Информация : Audio Video Interleave
Размер файла : 1,17 Гбайт
Продолжительность : 1 ч. 30 м.
Общий поток : 1859 Кбит/сек
Программа кодирования : VirtualDubMod 1.5.10.2 (build 2540/release)
Библиотека кодирования : VirtualDubMod build 2540/release
Видео
Идентификатор : 0
Формат : MPEG-4 Visual
Профиль формата : Advanced Simple@L5
Параметр BVOP формата : 1
Параметр QPel формата : Нет
Параметр GMC формата : Без точки перехода
Параметр матрицы формата : Default (H.263)
Идентификатор кодека : XVID
Идентификатор кодека/Подсказка : XviD
Продолжительность : 1 ч. 30 м.
Битрейт : 1722 Кбит/сек
Ширина : 720 пикс.
Высота : 384 пикс.
Соотношение сторон : 1,875
Частота кадров : 23,976 кадр/сек
Цветовое пространство : YUV
Подвыборка цветности : 4:2:0
Битовая глубина : 8 бит
Тип развёртки : Прогрессивная
Метод сжатия : С потерями
Бит/(Пиксели*Кадры) : 0.260
Размер потока : 1,09 Гбайт (93%)
Библиотека кодирования : XviD 1.2.1 (UTC 2008-12-04)
Аудио
Идентификатор : 1
Формат : MPEG Audio
Версия формата : Version 1
Профиль формата : Layer 3
Режим : Joint stereo
Расширение режима : MS Stereo
Идентификатор кодека : 55
Идентификатор кодека/Подсказка : MP3
Продолжительность : 1 ч. 30 м.
Вид битрейта : Постоянный
Битрейт : 128 Кбит/сек
Каналы : 2 канала
Частота : 48,0 КГц
Метод сжатия : С потерями
Размер потока : 82,6 Мбайт (7%)
Выравнивание : Разделение по промежуткам
Продолжительность промежутка : 42 мс. (1,00 видеокадр)
Время предзагрузки промежутка : 500 ms
Библиотека кодирования : LAME3.98.2
Скриншоты:
Время раздачи: 24/7 по возможности

[Цитировать]

спасибо за хорошие фильмы

[Цитировать]



Показать сообщения:    

Текущее время: 09-Дек 12:45

Часовой пояс: UTC + 3


Вы не можете начинать темы
Вы не можете отвечать на сообщения
Вы не можете редактировать свои сообщения
Вы не можете удалять свои сообщения
Вы не можете голосовать в опросах
Вы не можете прикреплять файлы к сообщениям
Вы не можете скачивать файлы

!ВНИМАНИЕ!
Сайт не предоставляет электронные версии произведений, а занимается лишь коллекционированием и каталогизацией ссылок, присылаемых и публикуемых на форуме нашими читателями. Если вы являетесь правообладателем какого-либо представленного материала и не желаете, чтобы ссылка на него находилась в нашем каталоге, свяжитесь с нами, и мы незамедлительно удалим ее. Файлы для обмена на трекере предоставлены пользователями сайта, и администрация не несет ответственности за их содержание. Просьба не заливать файлы, защищенные авторскими правами, а также файлы нелегального содержания!