[ Сегодня идет свободное скачивание без начисления Download ]


Статистика раздачи
Нет
 
   
 
Top  
 
 
-В тупике / Gridlock'd (1997) HDTVRip [H.264]- Страна: США
Русское название: В тупике
Оригинальное название: Gridlock'd
Год выпуска: 1997
Жанр: Комедия, Драма
Описание фильма:
Кошмар новогоднего утра. Подружка Стретча и Спуна загибается от передозировки. Парни мечтают завязать с наркотиками. Против них все: Правительство, наркобизнес, тупые и злобные бандиты, тяжелое детство, погода, телевидение..... С Новым годом, Америка!
Режиссер: Вонди Куртис-Холл / Vondie Curtis-Hall
Актеры: Тупак Шакур, Тим Рот, Тэнди Ньютон, Чарльз Флайшер, Ховард Хессеман, Джеймс Пикенс мл., Джон Сейлз, Эрик Пэйн, Том Таулз, Том Райт
Продолжительность: 01:23:19
Перевод: Многоголосный закадровый, Одноголосный закадровый [Внимание! Не нормативная лексика]

Качество видео: HDTVRip
Видео: x.264, 1024x560 (1.85:1), 2473 Кбит/сек, 25.000 fps
Аудио 1: AC-3, 384 Kbps, 6 channels, Front: L C R, Side: L R, LFE, 48.0 KHz, 16 bits, Lossy, Многоголосный закадровый, Русский
Аудио 2: AC-3, 192 Kbps, 2 channels, Front: L R, 48.0 KHz, 16 bits, Lossy, Многоголосный закадровый, т/к "Россия", Русский
Аудио 3: AC-3, 384 Kbps, 6 channels, Front: L C R, Side: L R, LFE, 48.0 KHz, 16 bits, Lossy, Одноголосный закадровый, [D Cap Studio], Русский [Внимание! Не нормативная лексика]
Аудио 4: AC-3, 384 Kbps, 6 channels, Front: L C R, Side: L R, LFE, 48.0 KHz, 16 bits, Lossy, Original, English
Субтиры: Русские [Внимание! Не нормативная лексика]

Mediainfo

General
Complete name : В тупике. Gridlock'd. 1997. (черная наркоманская комедия. В гл. ролях Т.Рот и Т.Шакур). HDTVRip-AVC.mkv
Format : Matroska
Format version : Version 2
File size : 2.27 GiB
Duration : 1h 23mn
Overall bit rate : 3 894 Kbps
Encoded date : UTC 2011-12-25 19:27:13
Writing application : mkvmerge v5.0.1 ('Es ist Sommer') built on Oct 9 2011 11:55:43
Writing library : libebml v1.2.2 + libmatroska v1.3.0
Video
ID : 1
Format : AVC
Format/Info : Advanced Video Codec
Format profile : [email protected]
Format settings, CABAC : Yes
Format settings, ReFrames : 13 frames
Muxing mode : Header stripping
Codec ID : V_MPEG4/ISO/AVC
Duration : 1h 23mn
Bit rate : 2 473 Kbps
Width : 1 024 pixels
Height : 560 pixels
Display aspect ratio : 1.85:1
Frame rate mode : Constant
Frame rate : 25.000 fps
Color space : YUV
Chroma subsampling : 4:2:0
Bit depth : 8 bits
Scan type : Progressive
Bits/(Pixel*Frame) : 0.172
Stream size : 1.44 GiB (63%)
Title : В тупике / Gridlock'd [1997. HDTVRip-AVC]
Writing library : x264 core 98 r1649 c54c47d
Encoding settings : cabac=1 / ref=13 / deblock=1:-3:-2 / analyse=0x3:0x113 / me=umh / subme=10 / psy=1 / psy_rd=1.00:0.05 / mixed_ref=1 / me_range=32 / chroma_me=1 / trellis=2 / 8x8dct=1 / cqm=0 / deadzone=21,11 / fast_pskip=1 / chroma_qp_offset=-5 / threads=3 / sliced_threads=0 / nr=0 / decimate=1 / interlaced=0 / constrained_intra=0 / bframes=10 / b_pyramid=2 / b_adapt=2 / b_bias=0 / direct=1 / weightb=1 / weightp=2 / keyint=250 / keyint_min=25 / scenecut=40 / intra_refresh=0 / rc=crf / mbtree=0 / crf=19.0 / qcomp=0.65 / qpmin=10 / qpmax=51 / qpstep=4 / ip_ratio=1.40 / pb_ratio=1.30 / aq=1:1.00
Language : English
Default : Yes
Forced : No
Audio #1
ID : 2
Format : AC-3
Format/Info : Audio Coding 3
Mode extension : CM (complete main)
Format settings, Endianness : Big
Muxing mode : Header stripping
Codec ID : A_AC3
Duration : 1h 23mn
Bit rate mode : Constant
Bit rate : 384 Kbps
Channel(s) : 6 channels
Channel positions : Front: L C R, Side: L R, LFE
Sampling rate : 48.0 KHz
Bit depth : 16 bits
Compression mode : Lossy
Stream size : 229 MiB (10%)
Title : MVO
Language : Russian
Default : Yes
Forced : No
Audio #2
ID : 3
Format : AC-3
Format/Info : Audio Coding 3
Mode extension : CM (complete main)
Format settings, Endianness : Big
Muxing mode : Header stripping
Codec ID : A_AC3
Duration : 1h 23mn
Bit rate mode : Constant
Bit rate : 192 Kbps
Channel(s) : 2 channels
Channel positions : Front: L R
Sampling rate : 48.0 KHz
Bit depth : 16 bits
Compression mode : Lossy
Delay relative to video : 9s 299ms
Stream size : 114 MiB (5%)
Title : MVO [т/к "Россия"]
Language : Russian
Default : No
Forced : No
Audio #3
ID : 4
Format : AC-3
Format/Info : Audio Coding 3
Mode extension : CM (complete main)
Format settings, Endianness : Big
Muxing mode : Header stripping
Codec ID : A_AC3
Duration : 1h 23mn
Bit rate mode : Constant
Bit rate : 384 Kbps
Channel(s) : 6 channels
Channel positions : Front: L C R, Side: L R, LFE
Sampling rate : 48.0 KHz
Bit depth : 16 bits
Compression mode : Lossy
Stream size : 229 MiB (10%)
Title : AVO [D Cap Studio]
Language : Russian
Default : No
Forced : No
Audio #4
ID : 5
Format : AC-3
Format/Info : Audio Coding 3
Mode extension : CM (complete main)
Format settings, Endianness : Big
Muxing mode : Header stripping
Codec ID : A_AC3
Duration : 1h 23mn
Bit rate mode : Constant
Bit rate : 384 Kbps
Channel(s) : 6 channels
Channel positions : Front: L C R, Side: L R, LFE
Sampling rate : 48.0 KHz
Bit depth : 16 bits
Compression mode : Lossy
Stream size : 229 MiB (10%)
Title : Original
Language : English
Default : No
Forced : No
Text
ID : 6
Format : UTF-8
Codec ID : S_TEXT/UTF8
Codec ID/Info : UTF-8 Plain Text
Title : Русские
Language : Russian
Default : No
Forced : No
Сэмпл: Ссылка
Скриншоты:

Моё мнение о фильме

Феерически смешная комедия о буднях наркоманов, решивших "завязать". И при этом грустная.
Великолепная игра актеров.
Рекомендую.
Время раздачи: С 10:00 до 17:00 (мск)

[Цитировать]



Показать сообщения:    

Текущее время: 04-Дек 13:10

Часовой пояс: UTC + 3


Вы не можете начинать темы
Вы не можете отвечать на сообщения
Вы не можете редактировать свои сообщения
Вы не можете удалять свои сообщения
Вы не можете голосовать в опросах
Вы не можете прикреплять файлы к сообщениям
Вы не можете скачивать файлы

!ВНИМАНИЕ!
Сайт не предоставляет электронные версии произведений, а занимается лишь коллекционированием и каталогизацией ссылок, присылаемых и публикуемых на форуме нашими читателями. Если вы являетесь правообладателем какого-либо представленного материала и не желаете, чтобы ссылка на него находилась в нашем каталоге, свяжитесь с нами, и мы незамедлительно удалим ее. Файлы для обмена на трекере предоставлены пользователями сайта, и администрация не несет ответственности за их содержание. Просьба не заливать файлы, защищенные авторскими правами, а также файлы нелегального содержания!