[ Сегодня идет свободное скачивание без начисления Download ]


Статистика раздачи
Нет
 
   
 
Top  
 
 
-Мудрость крокодилов / The Wisdom of Crocodiles (1998) HDRip Русское название: Мудрость крокодилов
Оригинальное название: The Wisdom of Crocodiles
Год выпуска: 1998
Жанр: Триллер, Криминал, Детектив
Описание фильма:
Загадочному и неотразимому Стивену нужна кровь молодых женщин, чтобы жить. В ней он ищет сущность любви, без этого ингредиента он обречен на медленную гибель.
Он — современный вампир в бесконечных поисках своей единственной возлюбленной. Юные красавицы бессильны перед его чарами, но Стивену нужна та, кто будет любить его беззаветно и страстно.
Когда в жизни Стивена появляется Анна, его чувства впервые находят ответ в ее трепетном сердце, но Анна еще не знает, что своим избранницам в обмен на любовь Стивен может предложить лишь жестокую смерть…
Режиссер: По-Чин Леонг
Актеры: Джуд Лоу, Элина Лёвензон, Тимоти Сполл, Джек Девенпорт, Колин Сэлмон, Гитлер Вонг, Керри Фокс, Стюарт Боуман, Анастасия Хилл, Николас Ламонт, Джозеф О'Конор, Эшли Артус, Том Ву, Хон Пинг Тэнг, Энтони Коттон, Ричард Милан, Карлтон Хэдли, Джулия Дейвис
Продолжительность: 01:39:15
Перевод: Многоголосый закадровый

Дата мировой премьеры: 27 ноября 1998
Формат: AVI
Видео кодек: XviD
Аудио кодек: AC3
Видео: 720x384 (1.88:1), 23.976 fps, 1704 kbps avg, 0.257 bit/pixel
Аудио: 48 kHz, AC3 Dolby Digital, 3/2 (L,C,R,l,r) LFE ch, ~384 kbps
&

MediaInfo

Общее
Полное имя : D:\The Wisdom of Crocodiles.1998.HDRip.avi
Формат : AVI
Формат/Информация : Audio Video Interleave
Размер файла : 1,45 Гбайт
Продолжительность : 1 ч. 39 м.
Общий поток : 2097 Кбит/сек
Программа кодирования : VirtualDubMod 1.5.10.3 (build 2550/release)
Библиотека кодирования : VirtualDubMod build 2550/release
Правообладатель : rip by Rulya74
Видео
Идентификатор : 0
Формат : MPEG-4 Visual
Профиль формата : Advanced Simple@L5
Параметр BVOP формата : 1
Параметр QPel формата : Нет
Параметр GMC формата : Без точки перехода
Параметр матрицы формата : Выборочная
Режим смешивания : Сжатый битовый поток
Идентификатор кодека : XVID
Идентификатор кодека/Подсказка : XviD
Продолжительность : 1 ч. 39 м.
Битрейт : 1704 Кбит/сек
Ширина : 720 пикселей
Высота : 384 пикселя
Соотношение сторон : 1,85:1
Частота кадров : 23,976 кадра/сек
Цветовое пространство : YUV
Субдискретизация насыщенности : 4:2:0
Битовая глубина : 8 бит
Тип развёртки : Прогрессивная
Метод сжатия : С потерями
Бит/(Пиксели*Кадры) : 0.257
Размер потока : 1,18 Гбайт (81%)
Библиотека кодирования : XviD 65
Аудио
Идентификатор : 1
Формат : AC-3
Формат/Информация : Audio Coding 3
Расширение режима : CM (complete main)
Параметр Endianness формата : Big
Идентификатор кодека : 2000
Продолжительность : 1 ч. 39 м.
Вид битрейта : Постоянный
Битрейт : 384 Кбит/сек
Каналы : 6 каналов
Расположение каналов : Front: L C R, Side: L R, LFE
Частота : 48,0 КГц
Битовая глубина : 16 бит
Метод сжатия : С потерями
Размер потока : 272 Мбайт (18%)
Выравнивание : Разделение по промежуткам
Продолжительность промежутка : 42 мс. (1,00 видеокадр)
Время предзагрузки промежутка : 500 мс.
Заголовок : Профессиональный (многоголосый закадровый)
Скриншоты:

Время раздачи: с 8:00 до 23:00

[Цитировать]



Показать сообщения:    

Текущее время: 21-Янв 16:30

Часовой пояс: UTC + 3


Вы не можете начинать темы
Вы не можете отвечать на сообщения
Вы не можете редактировать свои сообщения
Вы не можете удалять свои сообщения
Вы не можете голосовать в опросах
Вы не можете прикреплять файлы к сообщениям
Вы не можете скачивать файлы

!ВНИМАНИЕ!
Сайт не предоставляет электронные версии произведений, а занимается лишь коллекционированием и каталогизацией ссылок, присылаемых и публикуемых на форуме нашими читателями. Если вы являетесь правообладателем какого-либо представленного материала и не желаете, чтобы ссылка на него находилась в нашем каталоге, свяжитесь с нами, и мы незамедлительно удалим ее. Файлы для обмена на трекере предоставлены пользователями сайта, и администрация не несет ответственности за их содержание. Просьба не заливать файлы, защищенные авторскими правами, а также файлы нелегального содержания!