[ Today is free to download without increasing Download ]

DL-List and Torrent activity
-Поздний квартет / A Late Quartet (2012) HDRip-«No arrangement is more beautiful...or more complicated.»- Русское название: Поздний квартет
Оригинальное название: A Late Quartet
Год выпуска: 2012
Производство: США / Opening Night Productions, Concept Entertainment, Unison Films
Жанр: Драма-Описание фильма:
История знаменитого на весь мир квартета, который празднует 25-тилетнюю годовщину.-Режиссер: Ярон Зиберман
Актеры: Кристофер Уокен, Филип Сеймур Хоффман, Кэтрин Кинер, Имоджен Путс, Уоллес Шоун, Марк Иванир, Лираз Чарчи, Мадхур Джаффри-Продолжительность: 01:46:09
Перевод: Одноголосый закадровый, любительский- -Дата мировой премьеры: 10 сентября 2012-Видеокодек: Xvid
Битрейт видео: ~1689 kb/s
Размер кадра: 720x304
Качество видео: HDRip
Аудиокодек: MP3 (2 ch)
Битрейт аудио: 128 kb/s


Полное имя : D:\Торрент раздача\Pozdnij.kvartet.2012.L1.HDRip.avi
Формат : AVI
Формат/Информация : Audio Video Interleave
Размер файла : 1,35 Гбайт
Продолжительность : 1 ч. 46 м.
Общий поток : 1827 Кбит/сек
Программа кодирования : VirtualDubMod (build 2540/release)
Библиотека кодирования : VirtualDubMod build 2540/release
Идентификатор : 0
Формат : MPEG-4 Visual
Профиль формата : Advanced Simple@L5
Параметр BVOP формата : 2
Параметр QPel формата : Нет
Параметр GMC формата : Без точки перехода
Параметр матрицы формата : Выборочная
Идентификатор кодека : XVID
Идентификатор кодека/Подсказка : XviD
Продолжительность : 1 ч. 46 м.
Битрейт : 1689 Кбит/сек
Ширина : 720 пикселей
Высота : 304 пикселя
Соотношение сторон : 2,35:1
Частота кадров : 23,976 кадра/сек
Цветовое пространство : YUV
Субдискретизация насыщенности : 4:2:0
Битовая глубина : 8 бит
Тип развёртки : Прогрессивная
Метод сжатия : С потерями
Бит/(Пиксели*Кадры) : 0.322
Размер потока : 1,25 Гбайт (92%)
Библиотека кодирования : XviD 64
Идентификатор : 1
Формат : AC-3
Формат/Информация : Audio Coding 3
Расширение режима : CM (complete main)
Параметр Endianness формата : Big
Идентификатор кодека : 2000
Продолжительность : 1 ч. 46 м.
Вид битрейта : Постоянный
Битрейт : 128 Кбит/сек
Каналы : 2 канала
Расположение каналов : Front: L R
Частота : 48,0 КГц
Битовая глубина : 16 бит
Метод сжатия : С потерями
Размер потока : 97,2 Мбайт (7%)
Выравнивание : Разделение по промежуткам
Продолжительность промежутка : 42 мс. (1,00 видеокадр)
Время предзагрузки промежутка : 500 мс.
Время раздачи: 08:00 - 23:30 (МСК)


Display posts:    

Current time is: 26-Oct 01:42

All times are UTC + 3

You cannot post new topics in this forum
You cannot reply to topics in this forum
You cannot edit your posts in this forum
You cannot delete your posts in this forum
You cannot vote in polls in this forum
You cannot attach files in this forum
You cannot download files in this forum

The site does not give electronic versions of products, and is engaged only in a collecting and cataloguing of the references sent and published at a forum by our readers. If you are the legal owner of any submitted material and do not wish that the reference to it was in our catalogue, contact us and we shall immediately remove her. Files for an exchange on tracker are given by users of a site, and the administration does not bear the responsibility for their maintenance. The request to not fill in the files protected by copyrights, and also files of the illegal maintenance!