[ Сегодня идет свободное скачивание без начисления Download ]


Статистика раздачи
Нет
 
   
 
Top  
 
 
-Авторазбор / Wreckage (2010) DVDRip- Русское название: Авторазбор
Оригинальное название: Wreckage
Год выпуска: 2010
Страна: США
Жанр: Ужасы, Триллер-Описание фильма:
У группы друзей во время поездки ломается машина. У них есть два пути: вернуться в город пешком или попытаться найти запчасть на находящейся поблизости автосвалке. К несчастью, они выбирают последнее, не подозревая какой ужас скрывается среди искореженных машин…-Режиссер: Джон Мэллори Эшер
Продюсер: Джон Мэллори Эшер, Дэвид Фриджерио, Расселл Джонс
Актеры: Аарон Пол, Джастин Аллен, Майк Эрвин, Джейк Фриджерио, Ruthanne Gibson, Келли Крюгер, Джордан Йейл Ливайн, Крис Мастро, Скут МакНэйри, Роджер Перри-Продолжительность: 01:22:50
Перевод: Одноголосый закадровый [Васька Куролесов] по субтитрам zelesk- -Дата мировой премьеры: 22 августа 2011-Видеокодек: Xvid
Битрейт видео: ~942 Кбит/с
Размер кадра: 640х352
Качество видео: DVDRip
Аудиокодек: MP3 (2 ch)
Битрейт аудио: 192 Кбит/с

MediaInfo

Общее
Полное имя : D:\Торрент раздача\Wreckage.2010.DVDRip.avi
Формат : AVI
Формат/Информация : Audio Video Interleave
Размер файла : 678 Мбайт
Продолжительность : 1 ч. 22 м.
Общий поток : 1144 Кбит/сек
Программа кодирования : VirtualDubMod 1.5.10.2 (build 2540/release)
Библиотека кодирования : VirtualDubMod build 2540/release
Видео
Идентификатор : 0
Формат : MPEG-4 Visual
Профиль формата : Advanced [email protected]
Параметр BVOP формата : 2
Параметр QPel формата : Нет
Параметр GMC формата : Без точки перехода
Параметр матрицы формата : Default (H.263)
Идентификатор кодека : XVID
Идентификатор кодека/Подсказка : XviD
Продолжительность : 1 ч. 22 м.
Битрейт : 943 Кбит/сек
Ширина : 640 пикселей
Высота : 352 пикселя
Соотношение сторон : 16:9
Частота кадров : 25,000 кадров/сек
Цветовое пространство : YUV
Субдискретизация насыщенности : 4:2:0
Битовая глубина : 8 бит
Тип развёртки : Прогрессивная
Метод сжатия : С потерями
Бит/(Пиксели*Кадры) : 0.167
Размер потока : 559 Мбайт (82%)
Библиотека кодирования : XviD 1.2.1 (UTC 2008-12-04)
Аудио
Идентификатор : 1
Формат : MPEG Audio
Версия формата : Version 1
Профиль формата : Layer 3
Режим : Joint stereo
Идентификатор кодека : 55
Идентификатор кодека/Подсказка : MP3
Продолжительность : 1 ч. 22 м.
Вид битрейта : Постоянный
Битрейт : 192 Кбит/сек
Каналы : 2 канала
Частота : 44,1 КГц
Метод сжатия : С потерями
Размер потока : 114 Мбайт (17%)
Выравнивание : Соединение по промежуткам
Продолжительность промежутка : 40 мс. (1,00 видеокадр)
Время предзагрузки промежутка : 522 мс.
Скриншоты:
Время раздачи: 08:00 - 23:00 (МСК)

[Цитировать]



Показать сообщения:    

Текущее время: 05-Дек 23:41

Часовой пояс: UTC + 3


Вы не можете начинать темы
Вы не можете отвечать на сообщения
Вы не можете редактировать свои сообщения
Вы не можете удалять свои сообщения
Вы не можете голосовать в опросах
Вы не можете прикреплять файлы к сообщениям
Вы не можете скачивать файлы

!ВНИМАНИЕ!
Сайт не предоставляет электронные версии произведений, а занимается лишь коллекционированием и каталогизацией ссылок, присылаемых и публикуемых на форуме нашими читателями. Если вы являетесь правообладателем какого-либо представленного материала и не желаете, чтобы ссылка на него находилась в нашем каталоге, свяжитесь с нами, и мы незамедлительно удалим ее. Файлы для обмена на трекере предоставлены пользователями сайта, и администрация не несет ответственности за их содержание. Просьба не заливать файлы, защищенные авторскими правами, а также файлы нелегального содержания!