[ Сегодня идет свободное скачивание без начисления Download ]


Статистика раздачи
Нет
 
   
 
Top  
 
 
Жена Штирлица
Жанр: мелодрама
Год выпуска: 2012
Продолжительность: 01:30:41
Режиссёр: Вадим Соколовский
В ролях: Анна Горшкова, Павел Делонг (озвучание - Михаил Георгиу), Артем Фадеев, Ксения Князева, Татьяна Лютаева, Марианна Шульц, Константин Карасик, Антонина Козлова, Аля Никулина, Сергей Мезенцев, Александр Колесников, Дима Хопёрский, Татьяна Морозова, Галина Анисимова, Лариса Бедненко, Михаил Ермошин, Дмитрий Куделин, Владислав Дунаев, Максим Куранов, Сергей Краснов, Георгий Громов, Станислав Курач, Анастасия Платонова
Описание: Валентина одна воспитывает маленького сына Вовку. Видя, как мальчик тоскует по отцу, героиня сочиняет историю, что его папа - герой-разведчик, который выполняет секретное задание в Южной Америке и однажды обязательно вернется домой. Каково же было удивление Валентины, когда - на грани разоблачения своей лжи - она встретила мужчину, будто вышедшего из сказки, которую сочинила сама…
Доп. информация:
Релиз -
Файл чистый. Без посторонних надписей. Выкладывается как есть.
Семпл: http://multi-up.com/831607
Качество видео: HDTV 1080i
Формат видео: TS
Видео: AVC, 1920x1080 (16:9), 25 fps, 7655 Kbps, 0.148 bit/pixel
Аудио: MPEG Audio, 48 kHz, stereo, 192 Кбит/сек

Скриншот с названием фильма

Скриншоты


MI

GeneralID : 1 (0x1)Complete name : Жена Штирлица (2012, Мелодрама, HDTV) (MYDIMKA).tsFormat : MPEG-TSFile size : 5.36 GiBDuration : 1h 30mnOverall bit rate mode : VariableOverall bit rate : 8 463 Kbps
VideoID : 2911 (0xB5F)Menu ID : 1 (0x1)Format : AVCFormat/Info : Advanced Video CodecFormat profile : High@L4.0Format settings, CABAC : YesFormat settings, ReFrames : 4 framesCodec ID : 27Duration : 1h 30mnBit rate : 7 851 KbpsWidth : 1 920 pixelsHeight : 1 080 pixelsDisplay aspect ratio : 16:9Frame rate : 25.000 fpsColor space : YUVChroma subsampling : 4:2:0Bit depth : 8 bitsScan type : MBAFFBits/(Pixel*Frame) : 0.151Stream size : 4.97 GiB (93%)
AudioID : 2912 (0xB60)Menu ID : 1 (0x1)Format : MPEG AudioFormat version : Version 1Format profile : Layer 2Codec ID : 3Duration : 1h 30mnBit rate mode : ConstantBit rate : 192 KbpsChannel(s) : 2 channelsSampling rate : 48.0 KHzCompression mode : LossyStream size : 125 MiB (2%)Language : Russian

Сравнение

http://rutracker.org/forum/viewtopic.php?t=4165104
http://screenshotcomparison.com/comparison/8138
http://screenshotcomparison.com/comparison/8139
Хостинг не хочет делать три пары сравнений кадров большого размера, пришлось разделить на две части.

[Цитировать]



Показать сообщения:    

Текущее время: 09-Дек 16:23

Часовой пояс: UTC + 3


Вы не можете начинать темы
Вы не можете отвечать на сообщения
Вы не можете редактировать свои сообщения
Вы не можете удалять свои сообщения
Вы не можете голосовать в опросах
Вы не можете прикреплять файлы к сообщениям
Вы не можете скачивать файлы

!ВНИМАНИЕ!
Сайт не предоставляет электронные версии произведений, а занимается лишь коллекционированием и каталогизацией ссылок, присылаемых и публикуемых на форуме нашими читателями. Если вы являетесь правообладателем какого-либо представленного материала и не желаете, чтобы ссылка на него находилась в нашем каталоге, свяжитесь с нами, и мы незамедлительно удалим ее. Файлы для обмена на трекере предоставлены пользователями сайта, и администрация не несет ответственности за их содержание. Просьба не заливать файлы, защищенные авторскими правами, а также файлы нелегального содержания!