[ Сегодня идет свободное скачивание без начисления Download ]


Статистика раздачи
Нет
 
   
 
Top  
 
 
Последняя сказка Риты / Нас было три подруги
Жанр: фэнтези, драма, детектив
Год выпуска: 2012
Продолжительность: 01:37:04
Режиссер: Рената Литвинова
В ролях: Ольга Кузина, Татьяна Друбич, Рената Литвинова, Николай Хомерики, Сати Спивакова, Регина Айрапетян, Алиса Хазанова, Вера Ундринцева, Иван Кожевников, Митя Борисов, Фарзон Чулибаев, Сергей Дебижев, Лев Данилкин, Альбина Евтушевская, Ольга Попова
Описание: Три женщины, три состояния души, три вечные темы: любовь, смерть и поиски счастья. И один ангел смерти, сопровождающий в иной мир души тех, кто способен любить. История, разворачивающаяся на грани реальности и запределья...
Доп. информация:

Семпл: http://multi-up.com/831441
Качество видео: DVDRip
Формат видео: AVI
Видео: 720х400 (1.80:1), 25 fps, XviD 1.2.1, 1695 Kbps
Аудио: 48,0 kHz, AC3, 6 ch, 448 Kbps

MediaInfo

Полное имя : Poslednyaya.skazka.Rity.2012.O.DVDRip.avi
Формат : AVI
Формат/Информация : Audio Video Interleave
Размер файла : 1,46 Гбайт
Продолжительность : 1 ч. 37 м.
Общий поток : 2153 Кбит/сек
Название фильма : Poslednyaya.skazka.Rity.2012.O.DVDRip.IRONCLUB
Программа кодирования : VirtualDubModRus 1.5.10.2 (build 2542/release)
Видео
Идентификатор : 0
Формат : MPEG-4 Visual
Профиль формата : Advanced Simple@L5
Параметр BVOP формата : 2
Параметр QPel формата : Нет
Параметр GMC формата : Без точки перехода
Параметр матрицы формата : Выборочная
Идентификатор кодека : XVID
Идентификатор кодека/Подсказка : XviD
Продолжительность : 1 ч. 37 м.
Битрейт : 1695 Кбит/сек
Ширина : 720 пикселей
Высота : 400 пикселей
Соотношение сторон : 16:9
Частота кадров : 25,000 кадров/сек
Цветовое пространство : YUV
Субдискретизация насыщенности : 4:2:0
Битовая глубина : 8 бит
Тип развёртки : Прогрессивная
Метод сжатия : С потерями
Бит/(Пиксели*Кадры) : 0.235
Размер потока : 1,15 Гбайт (79%)
Библиотека кодирования : XviD 1.2.1 (UTC 2008-12-04)
Аудио
Идентификатор : 1
Формат : AC-3
Формат/Информация : Audio Coding 3
Расширение режима : CM (complete main)
Параметр Endianness формата : Big
Идентификатор кодека : 2000
Продолжительность : 1 ч. 37 м.
Вид битрейта : Постоянный
Битрейт : 448 Кбит/сек
Каналы : 6 каналов
Расположение каналов : Front: L C R, Side: L R, LFE
Частота : 48,0 КГц
Битовая глубина : 16 бит
Метод сжатия : С потерями
Размер потока : 311 Мбайт (21%)
Выравнивание : Разделение по промежуткам
Продолжительность промежутка : 40 мс. (1,00 видеокадр)
Время предзагрузки промежутка : 500 мс.

Скриншот c названием фильма

Скриншоты

[Цитировать]



Показать сообщения:    

Текущее время: 08-Дек 12:55

Часовой пояс: UTC + 3


Вы не можете начинать темы
Вы не можете отвечать на сообщения
Вы не можете редактировать свои сообщения
Вы не можете удалять свои сообщения
Вы не можете голосовать в опросах
Вы не можете прикреплять файлы к сообщениям
Вы не можете скачивать файлы

!ВНИМАНИЕ!
Сайт не предоставляет электронные версии произведений, а занимается лишь коллекционированием и каталогизацией ссылок, присылаемых и публикуемых на форуме нашими читателями. Если вы являетесь правообладателем какого-либо представленного материала и не желаете, чтобы ссылка на него находилась в нашем каталоге, свяжитесь с нами, и мы незамедлительно удалим ее. Файлы для обмена на трекере предоставлены пользователями сайта, и администрация не несет ответственности за их содержание. Просьба не заливать файлы, защищенные авторскими правами, а также файлы нелегального содержания!