[ Сегодня идет свободное скачивание без начисления Download ]


Статистика раздачи
Нет
 
   
 
 
 
Апокалипсис. Люди Год выпуска: 2012
Страна: Россия
Производство: "Скай Продакшн"
Жанр: Научно-популярный
Режиссер: Сергей Куракин
В ролях: Ведущий: Владимир Марамышкин
Перевод: Не требуется
Субтитры: Отсутствуют
Описание: Верим мы или нет в апокалипсис, но до обещанного конца света 2012 года осталось совсем мало времени. Пора предусмотреть собственный путь спасения.
Откуда ждать беды? Каким будет конец света? Опасность может прийти в виде огромного метеорита, инопланетного десанта и смертельных вирусов.
И тогда Земля может стать непригодной для жизни... Но есть ли способы избежать планетарной катастрофы?
Съемочная группа документального цикла "Апокалипсис" – это журналисты, первые из всех получившие достоверную информацию о том, где строят бункеры, которые спасут землян от неминуемой гибели.
Ведущий программы Владимир Марамышкин рассмотрит разные точки зрения, проведет опыты и учтет важные факторы, которые могут указать на то, что жизнь на планете Земля под угрозой.

Доп. информация: Процесс вырождения человечества уже начался! То, что мы едим, чем дышим, что передаем по наследству, не делает нас сильнее – оно убивает…
Качество: SATRip
Продолжительность: 00:34:37
Формат: AVI
Видео кодек: DivX
Аудио кодек: MP3
Видео: 720x400 (1.80:1), 25 fps, DivX Codec 6.8.5/6.9.1 ~1500 kbps avg, 0.21 bit/pixel
Аудио: 48 kHz, MPEG Layer 3, 2 ch, ~128.00 kbps avg
Премьера (мир): нет
Премьера (РФ): нет

Media Info

Общее
Полное имя                               : D:\заливка\Apokalipsis._Lyudi_2012..avi
Формат                                   : AVI
Формат/Информация                        : Audio Video Interleave
Размер файла                             : 406 Мбайт
Продолжительность                        : 34 м.
Общий поток                              : 1638 Кбит/сек
Программа кодирования                    : VirtualDubModRus 1.5.10.2 (build 2542/release)
Библиотека кодирования                   : VirtualDubMod build 2542/release
Правообладатель                          : Shuriman
Видео
Идентификатор                            : 0
Формат                                   : MPEG-4 Visual
Параметр BVOP формата                    : 1
Параметр QPel формата                    : Нет
Параметр GMC формата                     : Без точки перехода
Параметр матрицы формата                 : Default (H.263)
Режим смешивания                         : Сжатый битовый поток
Идентификатор кодека                     : DX50
Идентификатор кодека/Подсказка           : DivX 5
Продолжительность                        : 34 м.
Битрейт                                  : 1501 Кбит/сек
Ширина                                   : 720 пикселей
Высота                                   : 400 пикселей
Соотношение сторон                       : 16:9
Частота кадров                           : 25,000 кадров/сек
Цветовое пространство                    : YUV
Субдискретизация насыщенности            : 4:2:0
Битовая глубина                          : 8 бит
Тип развёртки                            : Прогрессивная
Метод сжатия                             : С потерями
Бит/(Пиксели*Кадры)                      : 0.208
Размер потока                            : 372 Мбайт (92%)
Библиотека кодирования                   : DivX 6.8.5 (UTC 2009-08-20)
Аудио
Идентификатор                            : 1
Формат                                   : MPEG Audio
Версия формата                           : Version 1
Профиль формата                          : Layer 3
Режим                                    : Joint stereo
Расширение режима                        : MS Stereo
Идентификатор кодека                     : 55
Идентификатор кодека/Подсказка           : MP3
Продолжительность                        : 34 м.
Вид битрейта                             : Постоянный
Битрейт                                  : 128 Кбит/сек
Каналы                                   : 2 канала
Частота                                  : 48,0 КГц
Метод сжатия                             : С потерями
Размер потока                            : 31,7 Мбайт (8%)
Выравнивание                             : Разделение по промежуткам
Продолжительность промежутка             : 40  мс. (1,00 видеокадр)
Время предзагрузки промежутка            : 500  мс.

Скриншоты

[Цитировать]



Показать сообщения:    

Текущее время: 07-Дек 21:18

Часовой пояс: UTC + 3


Вы не можете начинать темы
Вы не можете отвечать на сообщения
Вы не можете редактировать свои сообщения
Вы не можете удалять свои сообщения
Вы не можете голосовать в опросах
Вы не можете прикреплять файлы к сообщениям
Вы не можете скачивать файлы

!ВНИМАНИЕ!
Сайт не предоставляет электронные версии произведений, а занимается лишь коллекционированием и каталогизацией ссылок, присылаемых и публикуемых на форуме нашими читателями. Если вы являетесь правообладателем какого-либо представленного материала и не желаете, чтобы ссылка на него находилась в нашем каталоге, свяжитесь с нами, и мы незамедлительно удалим ее. Файлы для обмена на трекере предоставлены пользователями сайта, и администрация не несет ответственности за их содержание. Просьба не заливать файлы, защищенные авторскими правами, а также файлы нелегального содержания!