[ Сегодня идет свободное скачивание без начисления Download ]


Статистика раздачи
Нет
 
   
 
 
 
[gposter=right]http://torrentsclub.org/pictures/920506404ce303afed...21.jpg[/gposter]
Исполнитель: Plus 44 (+44)
Страна: США
Альбом: When Your Heart Stops Beating
Год выпуска: 2006
Жанр: Punk Rock
Аудиокодек: FLAC
Тип рипа: tracks
Битрейт: lossless
Продолжительность: 00:51:12

Треклист:
01. Lycanthrope [00:03:57]
02. Baby, Come On [00:02:46]
03. When Your Heart Stops Beating [00:03:12]
04. Little Death [00:04:05]
05. 155 [00:03:29]
06. Lillian [00:04:38]
07. Cliff Diving [00:03:40]
08. Interlude [00:01:12]
09. Weatherman [00:04:33]
10. No, It Isn't [00:03:31]
11. Make You Smile [00:03:44]
12. Chapter 13 [00:05:07]
13. Baby, Come On (Acoustic) [00:02:52]
14. Weatherman (Acoustic) [00:04:20]

Отчет EAC:
EAC extraction logfile from 16. August 2007, 2:45 for CD
(+44) / When Your Heart Stops Beating
Used drive : HL-DT-STDVDRAM GSA-H44N Adapter: 2 ID: 0
Read mode : Secure with NO C2, accurate stream, disable cache
Read offset correction : 667
Overread into Lead-In and Lead-Out : No
Used output format : C:Program FilesExact Audio Copyflac.exe (User Defined Encoder)
192 kBit/s
Additional command line options : -8 -A tukey(0.25) -A gauss(0.1875) -b 4096 -V -T "artist=%a" -T "title=%t" -T "album=%g" -T "date=%y" -T "tracknumber=%n" -T "genre=%m" %s --sector-align
Other options :
Fill up missing offset samples with silence : Yes
Delete leading and trailing silent blocks : No
Installed external ASPI interface
Track 1
Filename C:UsersBurnellDocumentsUploads+44 - When Your Heart Stops Beating?1 - (+44) - Lycanthrope.wav
Pre-gap length 0:00:02.00
Peak level 98.8 %
Track quality 100.0 %
Test CRC BEBE5495
Copy CRC BEBE5495
Copy OK
Track 2
Filename C:UsersBurnellDocumentsUploads+44 - When Your Heart Stops Beating?2 - (+44) - Baby Come On.wav
Peak level 98.8 %
Track quality 100.0 %
Test CRC 39A5462E
Copy CRC 39A5462E
Copy OK
Track 3
Filename C:UsersBurnellDocumentsUploads+44 - When Your Heart Stops Beating?3 - (+44) - When Your Heart Stops Beating.wav
Peak level 98.8 %
Track quality 100.0 %
Test CRC D884BE7B
Copy CRC D884BE7B
Copy OK
Track 4
Filename C:UsersBurnellDocumentsUploads+44 - When Your Heart Stops Beating?4 - (+44) - Little Death.wav
Peak level 98.8 %
Track quality 100.0 %
Test CRC 7FDA4C9D
Copy CRC 7FDA4C9D
Copy OK
Track 5
Filename C:UsersBurnellDocumentsUploads+44 - When Your Heart Stops Beating?5 - (+44) - 155.wav
Peak level 98.9 %
Track quality 100.0 %
Test CRC B790C0B7
Copy CRC B790C0B7
Copy OK
Track 6
Filename C:UsersBurnellDocumentsUploads+44 - When Your Heart Stops Beating?6 - (+44) - Lillian.wav
Peak level 98.8 %
Track quality 100.0 %
Test CRC 4DBAA9D9
Copy CRC 4DBAA9D9
Copy OK
Track 7
Filename C:UsersBurnellDocumentsUploads+44 - When Your Heart Stops Beating?7 - (+44) - Cliffdiving.wav
Peak level 99.0 %
Track quality 100.0 %
Test CRC AF05D08A
Copy CRC AF05D08A
Copy OK
Track 8
Filename C:UsersBurnellDocumentsUploads+44 - When Your Heart Stops Beating?8 - (+44) - Interlude.wav
Pre-gap length 0:00:00.25
Peak level 97.8 %
Track quality 100.0 %
Test CRC 60847CC7
Copy CRC 60847CC7
Copy OK
Track 9
Filename C:UsersBurnellDocumentsUploads+44 - When Your Heart Stops Beating?9 - (+44) - Weatherman.wav
Peak level 98.8 %
Track quality 100.0 %
Test CRC 1B3FB4FE
Copy CRC 1B3FB4FE
Copy OK
Track 10
Filename C:UsersBurnellDocumentsUploads+44 - When Your Heart Stops Beating10 - (+44) - No, It Isn't.wav
Pre-gap length 0:00:00.53
Peak level 98.8 %
Track quality 100.0 %
Test CRC CA12775A
Copy CRC CA12775A
Copy OK
Track 11
Filename C:UsersBurnellDocumentsUploads+44 - When Your Heart Stops Beating11 - (+44) - Make You Smile.wav
Peak level 98.8 %
Track quality 100.0 %
Test CRC FAD2463D
Copy CRC FAD2463D
Copy OK
Track 12
Filename C:UsersBurnellDocumentsUploads+44 - When Your Heart Stops Beating12 - (+44) - Chapter 13.wav
Peak level 98.8 %
Track quality 100.0 %
Test CRC D47F4869
Copy CRC D47F4869
Copy OK
Track 13
Filename C:UsersBurnellDocumentsUploads+44 - When Your Heart Stops Beating13 - (+44) - Baby Come On (Acoustic).wav
Peak level 87.4 %
Track quality 100.0 %
Test CRC 9727C4F2
Copy CRC 9727C4F2
Copy OK
Track 14
Filename C:UsersBurnellDocumentsUploads+44 - When Your Heart Stops Beating14 - (+44) - Weatherman (Acoustic).wav
Peak level 98.8 %
Track quality 100.0 %
Test CRC E0013F83
Copy CRC E0013F83
Copy OK
No errors occured
End of status report
Скриншот TAU Analyzer:
[th]http://torrentsclub.org/pictures/eefc1132ae3a8b8a76...4e02529.jpg[/th] [th]http://torrentsclub.org/pictures/920506404ce303afed...fe20b21.jpg[/th] [th]http://torrentsclub.org/pictures/a451f294c66b9cf3cb...d694a1c.jpg[/th]

[Цитировать]



Показать сообщения:    

Текущее время: 06-Дек 15:17

Часовой пояс: UTC + 3


Вы не можете начинать темы
Вы не можете отвечать на сообщения
Вы не можете редактировать свои сообщения
Вы не можете удалять свои сообщения
Вы не можете голосовать в опросах
Вы не можете прикреплять файлы к сообщениям
Вы не можете скачивать файлы

!ВНИМАНИЕ!
Сайт не предоставляет электронные версии произведений, а занимается лишь коллекционированием и каталогизацией ссылок, присылаемых и публикуемых на форуме нашими читателями. Если вы являетесь правообладателем какого-либо представленного материала и не желаете, чтобы ссылка на него находилась в нашем каталоге, свяжитесь с нами, и мы незамедлительно удалим ее. Файлы для обмена на трекере предоставлены пользователями сайта, и администрация не несет ответственности за их содержание. Просьба не заливать файлы, защищенные авторскими правами, а также файлы нелегального содержания!