[ Сегодня идет свободное скачивание без начисления Download ]


Статистика раздачи
Нет
 
   
 
Top  
 
 
-Детектор Лжи / Deceiver (1997) DVDRip [H.264]- Страна: США
Русское название: Детектор Лжи
Оригинальное название: Deceiver
Год выпуска: 1997
Жанр: Детектив, Триллер
Описание фильма:
Совершено ужасное преступление - жестоко убита молодая девушка. Основной подозреваемый - капризный отпрыск богатых родителей Джемс Уолтер Уэйланд. Но он ли убийца?
Напряженные допросы, которые превращаются в захватывающую игру трех профессионалов, выведывающих друг у друга самые мрачные тайны... Удастся ли выяснить, кто перед нами - убийца, алкоголик и психопат или невинный человек, ставший жертвой обстоятельств?
И кто допрашивает его - честные блюстители закона или хладнокровные мерзавцы? Их разделяет тонкая грань и между ними лишь беспристрастный детектор лжи...
Режиссер: Джонас Пейт / Jonas Pate, Джош Пейт / Josh Pate
Актеры: Крис Пенн, Эллен Бёрстин, Тим Рот, Рене Зеллвегер, Майкл Рукер, Розанна Аркетт, Дон Уинстон, Майкл Паркс, Марк Дэймон, Дж. К. Куин
Продолжительность: 01:41:55
Перевод: Многоголосый закадровый

Качество видео: DVDRip by Enclave76
Формат видео: MKV
Видео: x264, 702x442@998x442 (2.25:1), 25 fps, ~2100 Kbps, 0.27 bit/pixel
Аудио 1: AC3, 6ch, 48kHz, 384Kbps, MVO, Russian
Аудио 2: AC3, 6ch, 48kHz, 384Kbps, Original, English
Субтитры: Русские, Английские
Формат субтитров: softsub (SRT)
Главы: да

Mediainfo

General
Complete name : Детектор Лжи. Deceiver. 1997. (детективный триллер, превосходные актеры). DVDRip-AVC. x264.mkv
Format : Matroska
Format version : Version 2
File size : 2.04 GiB
Duration : 1h 41mn
Overall bit rate : 2 869 Kbps
Movie name : Deceiver.1997.PAL.IMPROVED.DVDRip.x264.AC3.Rus.Eng-E76
Encoded date : UTC 2011-11-12 15:48:17
Writing application : mkvmerge v5.0.1 ('Es ist Sommer') built on Oct 9 2011 11:55:43
Writing library : libebml v1.2.2 + libmatroska v1.3.0
Video
ID : 1
Format : AVC
Format/Info : Advanced Video Codec
Format profile : High@L4.1
Format settings, CABAC : Yes
Format settings, ReFrames : 12 frames
Codec ID : V_MPEG4/ISO/AVC
Duration : 1h 41mn
Bit rate : 2 100 Kbps
Width : 702 pixels
Height : 442 pixels
Display aspect ratio : 2.25:1
Original display aspect ratio : 1.738
Frame rate mode : Constant
Frame rate : 25.000 fps
Color space : YUV
Chroma subsampling : 4:2:0
Bit depth : 8 bits
Scan type : Progressive
Bits/(Pixel*Frame) : 0.271
Stream size : 1.46 GiB (71%)
Title : Encode by Enclave76
Writing library : x264 core 116 r2074kMod 2641b9e
Encoding settings : cabac=1 / ref=12 / deblock=1:-1:-1 / analyse=0x3:0x133 / me=umh / subme=10 / psy=1 / fade_compensate=0.00 / psy_rd=1.00:0.00 / mixed_ref=1 / me_range=32 / chroma_me=1 / trellis=2 / 8x8dct=1 / cqm=0 / deadzone=21,11 / fast_pskip=0 / chroma_qp_offset=-2 / threads=6 / sliced_threads=0 / nr=0 / decimate=0 / interlaced=0 / bluray_compat=0 / constrained_intra=0 / bframes=16 / b_pyramid=2 / b_adapt=2 / b_bias=0 / direct=1 / weightb=1 / open_gop=0 / weightp=2 / keyint=250 / keyint_min=25 / scenecut=40 / intra_refresh=0 / rc_lookahead=40 / rc=2pass / mbtree=0 / bitrate=2100 / ratetol=1.0 / qcomp=0.75 / qpmin=0 / qpmax=69 / qpstep=4 / cplxblur=20.0 / qblur=0.5 / vbv_maxrate=14000 / vbv_bufsize=17500 / nal_hrd=none / ip_ratio=1.40 / pb_ratio=1.30 / aq=3:0.90 / zones=145672,152891,q=35
Language : English
Default : No
Forced : No
Matrix coefficients : BT.601
Audio #1
ID : 2
Format : AC-3
Format/Info : Audio Coding 3
Mode extension : CM (complete main)
Format settings, Endianness : Big
Codec ID : A_AC3
Duration : 1h 41mn
Bit rate mode : Constant
Bit rate : 384 Kbps
Channel(s) : 6 channels
Channel positions : Front: L C R, Side: L R, LFE
Sampling rate : 48.0 KHz
Bit depth : 16 bits
Compression mode : Lossy
Stream size : 280 MiB (13%)
Title : MVO
Language : Russian
Default : Yes
Forced : No
Audio #2
ID : 3
Format : AC-3
Format/Info : Audio Coding 3
Mode extension : CM (complete main)
Format settings, Endianness : Big
Codec ID : A_AC3
Duration : 1h 41mn
Bit rate mode : Constant
Bit rate : 384 Kbps
Channel(s) : 6 channels
Channel positions : Front: L C R, Side: L R, LFE
Sampling rate : 48.0 KHz
Bit depth : 16 bits
Compression mode : Lossy
Stream size : 280 MiB (13%)
Title : Original
Language : English
Default : No
Forced : No
Text #1
ID : 4
Format : UTF-8
Codec ID : S_TEXT/UTF8
Codec ID/Info : UTF-8 Plain Text
Language : Russian
Default : No
Forced : No
Text #2
ID : 5
Format : UTF-8
Codec ID : S_TEXT/UTF8
Codec ID/Info : UTF-8 Plain Text
Language : English
Default : No
Forced : No
Menu
00:00:00.000 : :Chapter 01
00:05:30.480 : :Chapter 02
00:11:28.440 : :Chapter 03
00:16:46.680 : :Chapter 04
00:21:32.880 : :Chapter 05
00:27:50.880 : :Chapter 06
00:33:46.200 : :Chapter 07
00:39:57.600 : :Chapter 08
00:43:42.720 : :Chapter 09
00:49:01.320 : :Chapter 10
00:54:25.800 : :Chapter 11
00:59:41.640 : :Chapter 12
01:07:11.880 : :Chapter 13
01:12:32.640 : :Chapter 14
01:19:18.240 : :Chapter 15
01:24:57.960 : :Chapter 16
01:31:25.560 : :Chapter 17
01:37:07.920 : :Chapter 18
01:41:55.680 : :Chapter 19
Сэмпл 1: Ссылка
Сэмпл 2: Ссылка
Скриншоты:

Моё мнение о фильме

Must see.
Шедевр.
Время раздачи: С 10:00 до 17:00 (мск)

[Цитировать]



Показать сообщения:    

Текущее время: 11-Дек 12:54

Часовой пояс: UTC + 3


Вы не можете начинать темы
Вы не можете отвечать на сообщения
Вы не можете редактировать свои сообщения
Вы не можете удалять свои сообщения
Вы не можете голосовать в опросах
Вы не можете прикреплять файлы к сообщениям
Вы не можете скачивать файлы

!ВНИМАНИЕ!
Сайт не предоставляет электронные версии произведений, а занимается лишь коллекционированием и каталогизацией ссылок, присылаемых и публикуемых на форуме нашими читателями. Если вы являетесь правообладателем какого-либо представленного материала и не желаете, чтобы ссылка на него находилась в нашем каталоге, свяжитесь с нами, и мы незамедлительно удалим ее. Файлы для обмена на трекере предоставлены пользователями сайта, и администрация не несет ответственности за их содержание. Просьба не заливать файлы, защищенные авторскими правами, а также файлы нелегального содержания!