[ Сегодня идет свободное скачивание без начисления Download ]


Статистика раздачи
Нет
 
   
 
Top  
 
 
-Враг мой / Enemy Mine (1985) [H.264/720p-LQ] HDTVRip-«Он друг или враг?»- Русское название: Враг мой
Оригинальное название: Enemy Mine
Год выпуска: 1985
Страна: США
Жанр: Боевик, Приключения, Фантастика
Описание фильма:
В глубинах нашей галактики, на огромном расстоянии от Земли люди ведут кровопролитную войну с расой рептилий. Войну, которой Земля отдает последние силы, войну на полное уничтожение.
В одной из жестоких схваток в окрестностях гористой планеты в системе двойной звезды пилот Виллис Дэвидж сбивает машину чужого, но тут же получает несколько попаданий и выходит из боя.
Единственное место, где можно выжить после падения - та самая планета. Но упав, он обнаруживает, что сбитый им чужой не погиб. Смертельные враги оказываются заперты в одной клетке, и выбор прост - уничтожить друг друга или заключить перемирие и попытаться спастись.
Что окажется сильнее: желание жить или ненависть и боль за погибших?

Режиссер: Вольфганг Петерсен / Wolfgang Petersen
Актеры: Деннис Куэйд (Willis Davidge), Луис Госсет мл. (Jeriba 'Jerry' Shigan), Брайон Джеймс (Stubbs), Ричард Маркус (Arnold), Кэролин МакКормик (Morse), Бампер Робинсон (Zammis), Джим Мапп (Old Drac), Лэнс Кервин (Joey Wooster), Скотт Крафт (Jonathan), Лу Майклс (Wilson), Энди Гир (Bates), Henry Stolow (Cates)
Дублёры: Вадим Ледогоров (Willis Davidge), Борис Быстров (Jeriba 'Jerry' Shigan)
Продолжительность: 01:43:38
Перевод: Профессиональный (дублированный) c вставками многоголоски, профессиональный (многоголосый закадровый)
Язык субтитров: русские, английские, французские
Вид субтитров: Вшитые
Формат субтитров: softsub (SRT)

Дата мировой премьеры: 12 декабря 1985
Дата выхода DVD релиза: 25 сентября 2008, «Двадцатый Век Фокс СНГ»
Видеокодек: MPEG-4 AVC/H.264
Битрейт видео: ~1775 kbps avg, 0.051 bit/pixel
Размер кадра: 1280x544 (2.35:1), 50 fps
Качество видео: HDTVRip
Аудио#1: 48 kHz, AC3 Dolby Digital, 3/2 (L,C,R,l,r) + LFE ch, ~384 kbps Дубляж с многоголосыми вставками
Аудио#2: 48 kHz, AC3 Dolby Digital, 3/2 (L,C,R,l,r) + LFE ch, ~448 kbps Профессиональный (многоголосый закадровый)
Аудио#3: 48 kHz, AC3 Dolby Digital, 4 ch, ~384 kbps ENG / Оригинал (Английский)

MediaInfo

Общее
Уникальный идентификатор : 204104936187619204928592473665296078326 (0x998D2E4B89637AA2B83274F0CBBF15F6)
Полное имя : Vrag moy.mkv
Формат : Matroska
Версия формата : Version 2
Размер файла : 2,17 Гбайт
Продолжительность : 1 ч. 43 м.
Общий поток : 2993 Кбит/сек
Название фильма : Vrag moy.chopper887
Дата кодирования : UTC 2011-01-12 16:24:18
Программа кодирования : mkvmerge v4.4.0 ('Die Wiederkehr') сборка от Nov 7 2010 22:17:07
Библиотека кодирования : libebml v1.0.0 + libmatroska v1.0.0
Видео
Идентификатор : 1
Формат : AVC
Формат/Информация : Advanced Video Codec
Профиль формата : High@L4.1
Параметр CABAC формата : Да
Параметр ReFrames формата : 9 кадров
Идентификатор кодека : V_MPEG4/ISO/AVC
Продолжительность : 1 ч. 43 м.
Битрейт : 1775 Кбит/сек
Ширина : 1280 пикселей
Высота : 544 пикселя
Соотношение сторон : 2,35:1
Режим частоты кадров : Постоянный
Частота кадров : 50,000 кадров/сек
Цветовое пространство : YUV
Субдискретизация насыщенности : 4:2:0
Битовая глубина : 8 бит
Тип развёртки : Прогрессивная
Бит/(Пиксели*Кадры) : 0.051
Размер потока : 1,24 Гбайт (57%)
Заголовок : Vrag moy.chopper887
Библиотека кодирования : x264 core 110 r1804 e89c4cf
Настройки программы : cabac=1 / ref=9 / deblock=1:-2:-1 / analyse=0x3:0x133 / me=umh / subme=9 / psy=1 / psy_rd=1.00:0.10 / mixed_ref=1 / me_range=32 / chroma_me=1 / trellis=2 / 8x8dct=1 / cqm=0 / deadzone=21,11 / fast_pskip=0 / chroma_qp_offset=-3 / threads=3 / sliced_threads=0 / nr=0 / decimate=1 / interlaced=0 / constrained_intra=0 / bframes=5 / b_pyramid=2 / b_adapt=2 / b_bias=0 / direct=3 / weightb=1 / open_gop=0 / weightp=2 / keyint=250 / keyint_min=25 / scenecut=40 / intra_refresh=0 / rc_lookahead=80 / rc=2pass / mbtree=1 / bitrate=1775 / ratetol=1.0 / qcomp=0.60 / qpmin=0 / qpmax=51 / qpstep=4 / cplxblur=20.0 / qblur=0.5 / ip_ratio=1.40 / aq=1:1.00
Язык : English
Default : Да
Forced : Нет
Аудио #1
Идентификатор : 2
Формат : AC-3
Формат/Информация : Audio Coding 3
Расширение режима : CM (complete main)
Параметр Endianness формата : Big
Идентификатор кодека : A_AC3
Продолжительность : 1 ч. 43 м.
Вид битрейта : Постоянный
Битрейт : 384 Кбит/сек
Каналы : 6 каналов
Расположение каналов : Front: L C R, Side: L R, LFE
Частота : 48,0 КГц
Битовая глубина : 16 бит
Метод сжатия : С потерями
Размер потока : 285 Мбайт (13%)
Заголовок : Дубляж со вставками многоголоски
Default : Да
Forced : Нет
Аудио #2
Идентификатор : 3
Формат : AC-3
Формат/Информация : Audio Coding 3
Расширение режима : CM (complete main)
Параметр Endianness формата : Big
Идентификатор кодека : A_AC3
Продолжительность : 1 ч. 43 м.
Вид битрейта : Постоянный
Битрейт : 448 Кбит/сек
Каналы : 6 каналов
Расположение каналов : Front: L C R, Side: L R, LFE
Частота : 48,0 КГц
Битовая глубина : 16 бит
Метод сжатия : С потерями
Размер потока : 332 Мбайт (15%)
Заголовок : Многоголосый
Default : Нет
Forced : Нет
Аудио #3
Идентификатор : 4
Формат : AC-3
Формат/Информация : Audio Coding 3
Расширение режима : CM (complete main)
Параметр Endianness формата : Big
Идентификатор кодека : A_AC3
Продолжительность : 1 ч. 43 м.
Вид битрейта : Постоянный
Битрейт : 384 Кбит/сек
Каналы : 4 канала
Расположение каналов : Front: L C R, Side: C
Частота : 48,0 КГц
Битовая глубина : 16 бит
Метод сжатия : С потерями
Размер потока : 285 Мбайт (13%)
Заголовок : Английский
Default : Нет
Forced : Нет
Текст #1
Идентификатор : 5
Формат : UTF-8
Идентификатор кодека : S_TEXT/UTF8
Идентификатор кодека/Информация : UTF-8 Plain Text
Заголовок : Русские
Default : Да
Forced : Нет
Текст #2
Идентификатор : 6
Формат : UTF-8
Идентификатор кодека : S_TEXT/UTF8
Идентификатор кодека/Информация : UTF-8 Plain Text
Заголовок : Английские
Default : Нет
Forced : Нет
Текст #3
Идентификатор : 7
Формат : UTF-8
Идентификатор кодека : S_TEXT/UTF8
Идентификатор кодека/Информация : UTF-8 Plain Text
Заголовок : Французские
Default : Нет
Forced : Нет
Скриншоты:

Рецензия, отзыв о фильме

Враг мой - 15 лет спустя
Довелось мне пересмотреть культовый фильм моего детства - «Враг Мой», за что отдельный респект Александру Назаровскому. Так и вспоминается как мы в возрасте 10-12 лет смотрели это действо в глухой провинции с Алексеем Кондрашкиным. Интересно было сравнить свои впечатления о фильме спустя 15 лет.
Во-первых для меня было неожиданно, что режиссер этого фильма оказывается - Wolfgang Petersen, тот самый, что и у разочаровавшей меня слащавой «Трои» и у так и неосмотренного «Посейдона». Еще вроде Назер советовал к просмотру Das Boot.
Кстати сказать, объективно «Трою» местами фильм и напоминает - также затянут (в середине) и местами примитивен и слащав.
Во-вторых, конечно, когда знаешь и помнишь сюжет и даже помнишь, когда высунется то чудовище, что, поедает черепах на планете, смотреть не так интересно. Особенно дома. Бросаются в глаза минусы, затянутость середины и пр.
В общем, оценка фильма на IMDB - 6,4/10 в принципе вполне объективная. Ну, может быть «семерка», максимум - 8 при просмотре в кинотеатре. Кстати вполне интересная мысль показывать в кино иногда именно хиты прошлых лет - аналогично дискотеке 80х.
И тем не менее. Учитывая, что фильм все-таки года начала перестройки и для своего времени был просто культовым (нам с Кондратом нравился больше чем Кинг Конг - точно помню) - ставлю этому фильму твердую 10. Заслужил старичок.
10 из 10
Время раздачи: 24/7 до 5 скачавших

[Цитировать]



Показать сообщения:    

Текущее время: 09-Дек 14:38

Часовой пояс: UTC + 3


Вы не можете начинать темы
Вы не можете отвечать на сообщения
Вы не можете редактировать свои сообщения
Вы не можете удалять свои сообщения
Вы не можете голосовать в опросах
Вы не можете прикреплять файлы к сообщениям
Вы не можете скачивать файлы

!ВНИМАНИЕ!
Сайт не предоставляет электронные версии произведений, а занимается лишь коллекционированием и каталогизацией ссылок, присылаемых и публикуемых на форуме нашими читателями. Если вы являетесь правообладателем какого-либо представленного материала и не желаете, чтобы ссылка на него находилась в нашем каталоге, свяжитесь с нами, и мы незамедлительно удалим ее. Файлы для обмена на трекере предоставлены пользователями сайта, и администрация не несет ответственности за их содержание. Просьба не заливать файлы, защищенные авторскими правами, а также файлы нелегального содержания!