[ Сегодня идет свободное скачивание без начисления Download ]


Статистика раздачи
Нет
 
   
 
Top  
 
 
-Соучастник / Collateral (2004) HDRip- Русское название: Соучастник
Оригинальное название: Collateral
Год выпуска: 2004
Жанр: Триллер, Драма, Криминал
Описание фильма:
Для таксиста Макса очередной рабочий вечер открылся радостным знакомством с красоткой, а закончился настоящим кошмаром. К нему подсел странный, неразговорчивый человек, предложивший за 700 долларов доставить его по пяти разным адресам. Когда же Макс узнает, что хмурый Винсент – наемный убийца, который выполняет заказы по всему городу и становится свидетелем первого преступления, то он на свой страх и риск пытается предотвратить новые убийства и вступает с киллером в опасную игру... Ведь в списке киллера последним значится сам Макс...
Режиссер: Майкл Манн / Michael Mann
Актеры: Том Круз, Марк Руффало, Джейми Фокс, Джада Пинкетт Смит , Питер Берг, Брюс МакГилл
Продолжительность: 01:59:56
Перевод: Дублированный

Качество видео:HDRip
Видео: 688x288 (2.35:1), 23.98fps, XviD ~730 Kbps avg, 0.154 bit/pixel
Аудио: 48 kHz, MPEG Layer 3, 2 ch, ~128.00 kbps avg
Исходник: BDRip,1280 X 536.
Субтитры: отсутствуют

MediaInfo

General
Полное имя : D:\Торренты\Souhasnik.avi
Формат : AVI
Формат/Информация : Audio Video Interleave
Размер файла : 741 MiB
Продолжительность : 1h 59mn
Общий поток : 864 Kbps
Фильм : Souhasnik
Программа кодирования : VirtualDubMod 1.5.10.2 (build 2540/release)
Video
Идентификатор : 0
Формат : MPEG-4 Visual
Профайл формата : Advanced Simple@L5
Параметры BVOP формата : Yes
Параметры QPel формата : No
Параметры GMC формата : No warppoints
Параметры матрицы формата : Default (H.263)
Режим смешивания : Packed bitstream
Идентификатор кодека : XVID
Идентификатор кодека/Подсказка : XviD
Продолжительность : 1h 59mn
Битрейт : 730 Kbps
Ширина : 688 pixels
Высота : 288 pixels
Соотношение кадра : 2.35:1
Частота кадров : 23.976 fps
Разрешение : 8 bits
Колориметрия : 4:2:0
Тип развёртки : Progressive
Бит/(Пиксели*Кадры) : 0.154
Размер потока : 626 MiB (84%)
Библиотека кодирования : XviD 1.2.1 (UTC 2008-12-04)
Audio
Идентификатор : 1
Формат : MPEG Audio
Версия формата : Version 1
Профайл формата : Layer 3
Режим : Joint stereo
Format_Settings_ModeExtension : MS Stereo
Идентификатор кодека : 55
Идентификатор кодека/Подсказка : MP3
Продолжительность : 1h 57mn
Вид битрейта : Constant
Битрейт : 128 Kbps
Канал(ы) : 2 channels
Частота : 48.0 KHz
Задержка видео : 3s 500ms
Размер потока : 107 MiB (14%)
Выравнивание : Split accross interleaves
Продолжительность промежутка : 43 ms (1.02 video frame)
Время предзагрузки промежутка : 500 ms
Библиотека кодирования : LAME3.98.2
- -Время раздачи: С 23:00 до 8:30

[Цитировать]



Показать сообщения:    

Текущее время: 11-Дек 07:04

Часовой пояс: UTC + 3


Вы не можете начинать темы
Вы не можете отвечать на сообщения
Вы не можете редактировать свои сообщения
Вы не можете удалять свои сообщения
Вы не можете голосовать в опросах
Вы не можете прикреплять файлы к сообщениям
Вы не можете скачивать файлы

!ВНИМАНИЕ!
Сайт не предоставляет электронные версии произведений, а занимается лишь коллекционированием и каталогизацией ссылок, присылаемых и публикуемых на форуме нашими читателями. Если вы являетесь правообладателем какого-либо представленного материала и не желаете, чтобы ссылка на него находилась в нашем каталоге, свяжитесь с нами, и мы незамедлительно удалим ее. Файлы для обмена на трекере предоставлены пользователями сайта, и администрация не несет ответственности за их содержание. Просьба не заливать файлы, защищенные авторскими правами, а также файлы нелегального содержания!