[ Сегодня идет свободное скачивание без начисления Download ]


Статистика раздачи
Нет
 
   
 
Top  
 
 
-Короли рулетки / The Pelayos (2012) HDRip
«Они сумели схватить удачу за хвост, остаться в живых и при деньгах. Они - клан Пелайос.»
- Русское название: Короли рулетки
Оригинальное название: The Pelayos
Год выпуска: 2012
Производство: Испания | Afrodita Audiovisual, A.I.E., Alea Docs & Films, Bausan Films
Жанр: Боевик, Драма
Перевод: Многоголосый закадровый, профессиональный [Лицензия]
Субтитры: Отсутствуют-Дата мировой премьеры: 21 апреля 2012
Дата российской премьеры: 13 сентября 2012, «Cinema Prestige»-Режиссер: Эдуард Кортес-Продюсер: Хавьер Арес, Густаво Феррада, Дэниэл Хернандез-Актеры: Даниэль Брюль, Соня Касадемонт, Чи Чуй, Эдуард Фернандес, Льюис Омар, Ферран Лаоз, Рачель Ласкар, Мика Луна, Винсент Ромеро, Марина Салас-Описание фильма:
Авантюрная история, снятая по мотивам реальных событий, рассказывает о клане Пелайо. Члены этой Семьи — большие мастера рулетки и карт честным путем обыгрывали казино по всему миру. Благодаря своим незаурядным талантам, они заработали много денег и даже «увековечились» в названии школы покера.-
Продолжительность: 01:37:13
Качество видео: HDRip
Видеокодек: Xvid
Битрейт видео: ~ 1750 Кбит/сек
Размер кадра: 720 x 304 (2.368) at 25.000 fps
Аудиокодек: AC3 5.1
Битрейт аудио: 384 Кбит/сек, 48,0 КГц
Релиз:

Трейлер / Ролик

[youtube]http://www.youtube.com/v/oKm_i4nkjeI&fs=1[/youtube]

MediaInfo:

Полное имя                               : G:\Фильмы 2011-12\Короли рулетки  The Pelayos (2012) HDRip\Koroli.ruletki.2012.P.HDRip.avi
Формат                                   : AVI
Формат/Информация                        : Audio Video Interleave
Размер файла                             : 1,46 Гбайт
Продолжительность                        : 1 ч. 37 м.
Общий поток                              : 2144 Кбит/сек
Программа кодирования                    : VirtualDubMod 1.5.10.2 (build 2540/release)
Видео
Идентификатор                            : 0
Формат                                   : MPEG-4 Visual
Профиль формата                          : Advanced Simple@L5
Параметр BVOP формата                    : 2
Параметр QPel формата                    : Нет
Параметр GMC формата                     : Без точки перехода
Параметр матрицы формата                 : Выборочная
Идентификатор кодека                     : XVID
Идентификатор кодека/Подсказка           : XviD
Продолжительность                        : 1 ч. 37 м.
Битрейт                                  : 1750 Кбит/сек
Ширина                                   : 720 пикселей
Высота                                   : 304 пикселя
Соотношение сторон                       : 2,35:1
Частота кадров                           : 25,000 кадров/сек
Цветовое пространство                    : YUV
Субдискретизация насыщенности            : 4:2:0
Битовая глубина                          : 8 бит
Тип развёртки                            : Прогрессивная
Метод сжатия                             : С потерями
Бит/(Пиксели*Кадры)                      : 0.320
Размер потока                            : 1,19 Гбайт (82%)
Библиотека кодирования                   : XviD 64
Аудио
Идентификатор                            : 1
Формат                                   : AC-3
Формат/Информация                        : Audio Coding 3
Расширение режима                        : CM (complete main)
Параметр Endianness формата              : Big
Идентификатор кодека                     : 2000
Продолжительность                        : 1 ч. 37 м.
Вид битрейта                             : Постоянный
Битрейт                                  : 384 Кбит/сек
Каналы                                   : 6 каналов
Расположение каналов                     : Front: L C R, Side: L R, LFE
Частота                                  : 48,0 КГц
Битовая глубина                          : 16 бит
Метод сжатия                             : С потерями
Размер потока                            : 267 Мбайт (18%)
Выравнивание                             : Разделение по промежуткам
Продолжительность промежутка             : 40  мс. (1,00 видеокадр)
Время предзагрузки промежутка            : 500  мс.
Скриншоты:


[Цитировать]



Показать сообщения:    

Текущее время: 10-Дек 06:09

Часовой пояс: UTC + 3


Вы не можете начинать темы
Вы не можете отвечать на сообщения
Вы не можете редактировать свои сообщения
Вы не можете удалять свои сообщения
Вы не можете голосовать в опросах
Вы не можете прикреплять файлы к сообщениям
Вы не можете скачивать файлы

!ВНИМАНИЕ!
Сайт не предоставляет электронные версии произведений, а занимается лишь коллекционированием и каталогизацией ссылок, присылаемых и публикуемых на форуме нашими читателями. Если вы являетесь правообладателем какого-либо представленного материала и не желаете, чтобы ссылка на него находилась в нашем каталоге, свяжитесь с нами, и мы незамедлительно удалим ее. Файлы для обмена на трекере предоставлены пользователями сайта, и администрация не несет ответственности за их содержание. Просьба не заливать файлы, защищенные авторскими правами, а также файлы нелегального содержания!