[ Сегодня идет свободное скачивание без начисления Download ]


Статистика раздачи
Нет
 
   
 
Top  
 
 
-Любит / Не любит / Take This Waltz (2011) HDRip-- Русское название: Любит / Не любит
Оригинальное название: Take This Waltz
Год выпуска: 2011
Страна: Канада, Испания, Япония | Astral Media Inc., Joe's Daughter, The Harold Greenberg Fund
Жанр: Драма, Комедия--Описание фильма:
Когда Марго впервые встречает Дэниэла, напряжение между ними возникает мгновенно. Вскоре после их случайного знакомства выясняется, что Дэниэл — новый сосед Марго и ее мужа Лу.
28-летняя писательница Марго шесть лет замужем за Лу, успешным автором кулинарных книг. Оба счастливы в своей уютной размерен- ной жизни в пригороде Торонто и абсолютно уверены в своих чувствах. Эмоции, которые Марго начинает испытывать к новому приятелю совершенно не похожи на то, что происходит у них с мужем. Лу — забавный, добрый, милый, и постоянно готовит курицу, работая над очередным кулинарным бестселлером (и это немного раздражает Марго). А с симпатичным соседом — жаркое лето, прогулки, разговоры, многозначительные взгляды, ночной бассейн, щемящее чувство запрета. Марго окончательно теряет равновесие…
--Режиссер: Сара Полли
Актеры: Мишель Уильямс, Сет Роген, Люк Кирби, Сара Силверман, Дженнифер Подемски, Дайэн Д’Акила, Ванесса Коэльо, Грэхэм Эбби, Дэмиен Аткинс, Аарон Абрамс...
Продолжительность: 01:56:25
Перевод: Многоголосый закадровый
-Дата мировой премьеры: 10 сентября 2011
Дата российской премьеры: 31 января 2013, «A-One Films»-

Награды:

Сан-Себастьян, 2011 год:
Номинации (1):
»Золотая раковина
Видеокодек: Xvid
Битрейт видео: ~1932 Кбит/сек
Размер кадра: 720*384
Качество видео: HDRip
Аудио #1: AC3, 192 Кбит/сек, 2 канала, русская
Аудио #2: AC3, 384 Кбит/сек, 6 каналов, английская

MediaInfo:

Общее
Полное имя                               : :\\Take.This.Waltz.2011.P.HDRip.avi
Формат                                   : AVI
Формат/Информация                        : Audio Video Interleave
Профиль формата                          : OpenDML
Размер файла                             : 2,05 Гбайт
Продолжительность                        : 1 ч. 56 м.
Общий поток                              : 2526 Кбит/сек
Название фильма                          : Take.This.Waltz.2011.P.HDRip
Режиссёр                                 :
Жанр                                     : Comedy | Drama
Программа кодирования                    : VirtualDubMod 1.5.10.2 (build 2540/release)
Формат оригинала/Имя                     : Movie
Правообладатель                          :
Видео
Идентификатор                            : 0
Формат                                   : MPEG-4 Visual
Профиль формата                          : Advanced Simple@L5
Параметр BVOP формата                    : 1
Параметр QPel формата                    : Нет
Параметр GMC формата                     : Без точки перехода
Параметр матрицы формата                 : Выборочная
Идентификатор кодека                     : XVID
Идентификатор кодека/Подсказка           : XviD
Продолжительность                        : 1 ч. 56 м.
Битрейт                                  : 1932 Кбит/сек
Ширина                                   : 720 пикселей
Высота                                   : 384 пикселя
Соотношение сторон                       : 1,85:1
Частота кадров                           : 23,976 кадра/сек
Цветовое пространство                    : YUV
Субдискретизация насыщенности            : 4:2:0
Битовая глубина                          : 8 бит
Тип развёртки                            : Прогрессивная
Метод сжатия                             : С потерями
Бит/(Пиксели*Кадры)                      : 0.291
Размер потока                            : 1,57 Гбайт (76%)
Библиотека кодирования                   : XviD 1.2.1 (UTC 2008-12-04)
Аудио #1
Идентификатор                            : 1
Формат                                   : AC-3
Формат/Информация                        : Audio Coding 3
Расширение режима                        : CM (complete main)
Параметр Endianness формата              : Big
Идентификатор кодека                     : 2000
Продолжительность                        : 1 ч. 56 м.
Вид битрейта                             : Постоянный
Битрейт                                  : 192 Кбит/сек
Каналы                                   : 2 канала
Расположение каналов                     : Front: L R
Частота                                  : 48,0 КГц
Битовая глубина                          : 16 бит
Метод сжатия                             : С потерями
Размер потока                            : 160 Мбайт (8%)
Выравнивание                             : Разделение по промежуткам
Продолжительность промежутка             : 42  мс. (1,00 видеокадр)
Время предзагрузки промежутка            : 500  мс.
Аудио #2
Идентификатор                            : 2
Формат                                   : AC-3
Формат/Информация                        : Audio Coding 3
Расширение режима                        : CM (complete main)
Параметр Endianness формата              : Big
Идентификатор кодека                     : 2000
Продолжительность                        : 1 ч. 56 м.
Вид битрейта                             : Постоянный
Битрейт                                  : 384 Кбит/сек
Каналы                                   : 6 каналов
Расположение каналов                     : Front: L C R, Side: L R, LFE
Частота                                  : 48,0 КГц
Битовая глубина                          : 16 бит
Метод сжатия                             : С потерями
Размер потока                            : 320 Мбайт (15%)
Выравнивание                             : Разделение по промежуткам
Продолжительность промежутка             : 42  мс. (1,00 видеокадр)
Время предзагрузки промежутка            : 500  мс.
Скриншоты: --

[Цитировать]



Показать сообщения:    

Текущее время: 11-Дек 14:53

Часовой пояс: UTC + 3


Вы не можете начинать темы
Вы не можете отвечать на сообщения
Вы не можете редактировать свои сообщения
Вы не можете удалять свои сообщения
Вы не можете голосовать в опросах
Вы не можете прикреплять файлы к сообщениям
Вы не можете скачивать файлы

!ВНИМАНИЕ!
Сайт не предоставляет электронные версии произведений, а занимается лишь коллекционированием и каталогизацией ссылок, присылаемых и публикуемых на форуме нашими читателями. Если вы являетесь правообладателем какого-либо представленного материала и не желаете, чтобы ссылка на него находилась в нашем каталоге, свяжитесь с нами, и мы незамедлительно удалим ее. Файлы для обмена на трекере предоставлены пользователями сайта, и администрация не несет ответственности за их содержание. Просьба не заливать файлы, защищенные авторскими правами, а также файлы нелегального содержания!