[ Today is free to download without increasing Download ]

DL-List and Torrent activity
-Луна над Лакота / Томагавк / Lakota Moon / Tomahawk (1992) VHSRip- Русское название: Луна над Лакота / Томагавк
Оригинальное название: Lakota Moon / Tomahawk
Год выпуска: 1992
Жанр: Приключения, Исторический, Вестерн
Страна: США
Описание фильма:
Перед нами обычная жизнь в индейском лагере, с военными стычками, любовными приключениями и детскими забавами. На Равнинах еще только стали появляться первые торговцы с ружьями и другими товарами. Приятный фильм, рекомендуется для всех возрастов. (Ясененко О.Н.)
Режиссер: Кристофер Кэйн / Christopher Cain
Актеры: Ричард Тайсон, Родни А. Грант, Барбара Каррера, Зан МакКларнон, Тэйлин Форест Флауэр, Гордон Тутусис, Эван Адамс
Продолжительность: 01:28:10
Перевод: Одноголосый закадровый

Видеокодек: DivX 5
Битрейт видео: ~1 990 Kbps
Размер кадра: 512х384
Качество видео: VHSRip
Аудиокодек: AC3 2 ch
Битрейт аудио: 224 Kbps
Сэмпл: Ссылка
Рип взят из сети и оставлен без изменений


Format : AVI
Format/Info : Audio Video Interleave
File size : 1.37 GiB
Duration : 1h 28mn
Overall bit rate : 2 221 Kbps
Writing application : VirtualDubMod (build 2178/release)
Writing library : VirtualDubMod build 2178/release
ID : 0
Format : MPEG-4 Visual
Format settings, BVOP : 1
Format settings, QPel : No
Format settings, GMC : No warppoints
Format settings, Matrix : Default (H.263)
Muxing mode : Packed bitstream
Codec ID : DX50
Codec ID/Hint : DivX 5
Duration : 1h 28mn
Bit rate : 1 990 Kbps
Width : 512 pixels
Height : 384 pixels
Display aspect ratio : 4:3
Frame rate : 25.000 fps
Color space : YUV
Chroma subsampling : 4:2:0
Bit depth : 8 bits
Scan type : Progressive
Compression mode : Lossy
Bits/(Pixel*Frame) : 0.405
Stream size : 1.23 GiB (90%)
Writing library : DivX 6.6.1
ID : 1
Format : AC-3
Format/Info : Audio Coding 3
Mode extension : CM (complete main)
Format settings, Endianness : Big
Codec ID : 2000
Duration : 1h 28mn
Bit rate mode : Constant
Bit rate : 224 Kbps
Channel(s) : 2 channels
Channel positions : Front: L R
Sampling rate : 48.0 KHz
Bit depth : 16 bits
Compression mode : Lossy
Stream size : 141 MiB (10%)
Alignment : Split accross interleaves
Interleave, duration : 96 ms (2.40 video frames)
Interleave, preload duration : 96 ms
Language : English

Время раздачи: с 10:00 до 24:00


Display posts:    

Current time is: 21-Oct 19:40

All times are UTC + 3

You cannot post new topics in this forum
You cannot reply to topics in this forum
You cannot edit your posts in this forum
You cannot delete your posts in this forum
You cannot vote in polls in this forum
You cannot attach files in this forum
You cannot download files in this forum

The site does not give electronic versions of products, and is engaged only in a collecting and cataloguing of the references sent and published at a forum by our readers. If you are the legal owner of any submitted material and do not wish that the reference to it was in our catalogue, contact us and we shall immediately remove her. Files for an exchange on tracker are given by users of a site, and the administration does not bear the responsibility for their maintenance. The request to not fill in the files protected by copyrights, and also files of the illegal maintenance!