[ Сегодня идет свободное скачивание без начисления Download ]


Статистика раздачи
Нет
 
   
 
Top  
 
 
-Луна над Лакота / Томагавк / Lakota Moon / Tomahawk (1992) VHSRip- Русское название: Луна над Лакота / Томагавк
Оригинальное название: Lakota Moon / Tomahawk
Год выпуска: 1992
Жанр: Приключения, Исторический, Вестерн
Страна: США
Описание фильма:
Перед нами обычная жизнь в индейском лагере, с военными стычками, любовными приключениями и детскими забавами. На Равнинах еще только стали появляться первые торговцы с ружьями и другими товарами. Приятный фильм, рекомендуется для всех возрастов. (Ясененко О.Н.)
Режиссер: Кристофер Кэйн / Christopher Cain
Актеры: Ричард Тайсон, Родни А. Грант, Барбара Каррера, Зан МакКларнон, Тэйлин Форест Флауэр, Гордон Тутусис, Эван Адамс
Продолжительность: 01:28:10
Перевод: Одноголосый закадровый

Видеокодек: DivX 5
Битрейт видео: ~1 990 Kbps
Размер кадра: 512х384
Качество видео: VHSRip
Аудиокодек: AC3 2 ch
Битрейт аудио: 224 Kbps
Сэмпл: Ссылка
Рип взят из сети и оставлен без изменений

Медиаинфо

Format : AVI
Format/Info : Audio Video Interleave
File size : 1.37 GiB
Duration : 1h 28mn
Overall bit rate : 2 221 Kbps
Writing application : VirtualDubMod 1.5.4.1 (build 2178/release)
Writing library : VirtualDubMod build 2178/release
Video
ID : 0
Format : MPEG-4 Visual
Format settings, BVOP : 1
Format settings, QPel : No
Format settings, GMC : No warppoints
Format settings, Matrix : Default (H.263)
Muxing mode : Packed bitstream
Codec ID : DX50
Codec ID/Hint : DivX 5
Duration : 1h 28mn
Bit rate : 1 990 Kbps
Width : 512 pixels
Height : 384 pixels
Display aspect ratio : 4:3
Frame rate : 25.000 fps
Color space : YUV
Chroma subsampling : 4:2:0
Bit depth : 8 bits
Scan type : Progressive
Compression mode : Lossy
Bits/(Pixel*Frame) : 0.405
Stream size : 1.23 GiB (90%)
Writing library : DivX 6.6.1
Audio
ID : 1
Format : AC-3
Format/Info : Audio Coding 3
Mode extension : CM (complete main)
Format settings, Endianness : Big
Codec ID : 2000
Duration : 1h 28mn
Bit rate mode : Constant
Bit rate : 224 Kbps
Channel(s) : 2 channels
Channel positions : Front: L R
Sampling rate : 48.0 KHz
Bit depth : 16 bits
Compression mode : Lossy
Stream size : 141 MiB (10%)
Alignment : Split accross interleaves
Interleave, duration : 96 ms (2.40 video frames)
Interleave, preload duration : 96 ms
Language : English
Скриншоты:

Время раздачи: с 10:00 до 24:00

[Цитировать]



Показать сообщения:    

Текущее время: 08-Дек 23:13

Часовой пояс: UTC + 3


Вы не можете начинать темы
Вы не можете отвечать на сообщения
Вы не можете редактировать свои сообщения
Вы не можете удалять свои сообщения
Вы не можете голосовать в опросах
Вы не можете прикреплять файлы к сообщениям
Вы не можете скачивать файлы

!ВНИМАНИЕ!
Сайт не предоставляет электронные версии произведений, а занимается лишь коллекционированием и каталогизацией ссылок, присылаемых и публикуемых на форуме нашими читателями. Если вы являетесь правообладателем какого-либо представленного материала и не желаете, чтобы ссылка на него находилась в нашем каталоге, свяжитесь с нами, и мы незамедлительно удалим ее. Файлы для обмена на трекере предоставлены пользователями сайта, и администрация не несет ответственности за их содержание. Просьба не заливать файлы, защищенные авторскими правами, а также файлы нелегального содержания!