[ Сегодня идет свободное скачивание без начисления Download ]


Статистика раздачи
Нет
 
   
 
Top  
 
 
-Не оглядывайся / Ne te retourne pas (2009) [H.264] BDRip- Русское название: Не оглядывайся
Оригинальное название: Ne te retourne pas
Год выпуска: 2009
Жанр: Драма, Триллер
Описание фильма:
Жанна — писательница, замужем, имеет двоих детей. Она начинает замечать тревожащие её изменения в доме. Её тело начинает меняться. Но никто вокруг неё, кажется, этого не замечает. Семья списывает страхи Жанны на стресс, связанный с выходом её новой книги, но сама она понимает, что что-то другое, более глубокое и волнующее имеет место быть.
Увиденное на фотографии побуждает Жанну отправится в Италию на поиски одной женщины. И там, преобразовавшись в другую женщину, РозаМарию, она наконец-то поймёт странный секрет её истинной сущности.
Режиссер: Марина де Ван
Актеры: Софи Марсо, Моника Беллуччи, Андреа Ди Стефано, Брижит Катийон, Сильви Гранотье, Аугусто Дзукки, Джованни Франзони
Продолжительность: 01:50:03
Перевод: Дублированный

Дата мировой премьеры: 16 мая 2009
Дата российской премьеры: 22 октября 2009
Дата выхода DVD релиза: 19 ноября 2009
Видеокодек: MPEG-4 AVC/H.264
Битрейт видео: ~1515 Kbps
Размер кадра: 1120x480
Качество видео: BDRip
Аудиокодек: AC3 5.1
Битрейт аудио: 384 Kbps

MediaInfo

Format : Matroska
Format version : Version 1
File size : 1.46 GiB
Duration : 1h 50mn
Overall bit rate : 1 902 Kbps
Encoded by : @lolkin@
Encoded date : UTC 2010-02-01 15:23:28
Writing application : mkvmerge v2.4.2 ('Oh My God') built on Jan 18 2009 17:30:28
Writing library : libebml v0.7.7 + libmatroska v0.8.1
TITLE : Don't Look Back (2009)
DATE_RELEASED : 1th February 2010
COMMENT : BDRip
Video
ID : 1
Format : AVC
Format/Info : Advanced Video Codec
Format profile : [email protected]
Format settings, CABAC : Yes
Format settings, ReFrames : 12 frames
Codec ID : V_MPEG4/ISO/AVC
Duration : 1h 50mn
Bit rate : 1 515 Kbps
Width : 1 120 pixels
Height : 480 pixels
Display aspect ratio : 2.35:1
Frame rate : 23.976 fps
Color space : YUV
Chroma subsampling : 4:2:0
Bit depth : 8 bits
Scan type : Progressive
Bits/(Pixel*Frame) : 0.118
Stream size : 1.14 GiB (78%)
Title : Don't Look Back
Writing library : x264 core 84 r1400kMod 20fa784
Encoding settings : cabac=1 / ref=12 / deblock=1:-1:0 / analyse=0x3:0x113 / me=umh / subme=9 / psy=1 / psy_rd=0.9:0.2 / mixed_ref=1 / me_range=24 / chroma_me=1 / trellis=2 / 8x8dct=1 / cqm=0 / deadzone=21,11 / fast_pskip=1 / chroma_qp_offset=-3 / threads=3 / sliced_threads=0 / nr=0 / decimate=1 / mbaff=0 / constrained_intra=0 / bframes=10 / b_pyramid=2 / b_adapt=2 / b_bias=0 / direct=3 / wpredb=1 / wpredp=2 / keyint=240 / keyint_min=24 / scenecut=40 / intra_refresh=0 / rc_lookahead=80 / rc=2pass / mbtree=1 / bitrate=1515 / ratetol=1.0 / qcomp=0.70 / qpmin=10 / qpmax=51 / qpstep=4 / cplxblur=20.0 / qblur=0.5 / ip_ratio=1.40 / aq=1:1.10 / zones=151225,158324,q=30 / pulldown=0 / nal_hrd=0
Language : English
Default : Yes
Forced : No
Matrix coefficients : BT.709-5, BT.1361, IEC 61966-2-4 709, SMPTE RP177
Audio
ID : 2
Format : AC-3
Format/Info : Audio Coding 3
Mode extension : CM (complete main)
Format settings, Endianness : Big
Codec ID : A_AC3
Duration : 1h 50mn
Bit rate mode : Constant
Bit rate : 384 Kbps
Channel(s) : 6 channels
Channel positions : Front: L C R, Side: L R, LFE
Sampling rate : 48.0 KHz
Bit depth : 16 bits
Compression mode : Lossy
Stream size : 302 MiB (20%)
Title : dub
Language : Russian
Default : Yes
Forced : No
Скриншоты:

Время раздачи: С 0:00 до 7:00

[Цитировать]



Показать сообщения:    

Текущее время: 05-Дек 17:37

Часовой пояс: UTC + 3


Вы не можете начинать темы
Вы не можете отвечать на сообщения
Вы не можете редактировать свои сообщения
Вы не можете удалять свои сообщения
Вы не можете голосовать в опросах
Вы не можете прикреплять файлы к сообщениям
Вы не можете скачивать файлы

!ВНИМАНИЕ!
Сайт не предоставляет электронные версии произведений, а занимается лишь коллекционированием и каталогизацией ссылок, присылаемых и публикуемых на форуме нашими читателями. Если вы являетесь правообладателем какого-либо представленного материала и не желаете, чтобы ссылка на него находилась в нашем каталоге, свяжитесь с нами, и мы незамедлительно удалим ее. Файлы для обмена на трекере предоставлены пользователями сайта, и администрация не несет ответственности за их содержание. Просьба не заливать файлы, защищенные авторскими правами, а также файлы нелегального содержания!