[ Сегодня идет свободное скачивание без начисления Download ]


Статистика раздачи
Нет
 
   
 
Top  
 
 
-Американская Мэри / American Mary (2012) DVDRip- Русское название: Американская Мэри
Оригинальное название: American Mary
Год выпуска: 2012
Производство: Канада | Twisted Twins Productions, American Mary Production
Жанр: Ужасы, Триллер
Перевод: Двуголосый закадровый, любительский
Субтитры: Отсутствуют-Дата мировой премьеры: 27 августа 2012-Режиссер: Джен Соска, Сильвия Соска-Продюсеры: Джон А. Кертис, Ивэн Тайлор, Джен Соска-Актеры: Кэтрин Изабель, Антонио Цупо, Тристан Риск, Дэвид Ловгрен, Паула Линдберг, Клэй Ст. Томас, Джон Эммет Трэйси, Твэн Холлидэй, Нельсон Вонг, Сильвия Соска-Описание фильма:
Фильм расскажет нам историю Мэри Мэнсон, которая работает в салоне, специализирующемся на модификации тела человека. Вскоре она понимает что ей нравится уродовать тела и клиентов салона ей становится мало. Она решает уродовать людей на свой вкус, без их согласия.-
Продолжительность: 01:38:12
Качество видео: DVDRip
Видеокодек: Xvid
Битрейт видео: ~1670 Кбит/сек
Размер кадра: 720 x 304 (2.368) at 25.000 fps
Аудиокодек: AC3 5.1
Битрейт аудио: 448 Кбит/сек, 48,0 КГц

MediaInfo:

Полное имя                               : G:\Фильмы 2011-12\Американская Мэри  American Mary (2012) DVDRip\American.Mary.2012.L2.DVDRip.avi
Формат                                   : AVI
Формат/Информация                        : Audio Video Interleave
Размер файла                             : 1,46 Гбайт
Продолжительность                        : 1 ч. 38 м.
Общий поток                              : 2127 Кбит/сек
Режиссёр                                 : GOLIAF @ KOLOBOK
Программа кодирования                    : VirtualDubMod 1.5.10.2 (build 2540/release)
Библиотека кодирования                   : VirtualDubMod build 2540/release
Видео
Идентификатор                            : 0
Формат                                   : MPEG-4 Visual
Профиль формата                          : Advanced Simple@L5
Параметр BVOP формата                    : 2
Параметр QPel формата                    : Нет
Параметр GMC формата                     : Без точки перехода
Параметр матрицы формата                 : Default (H.263)
Идентификатор кодека                     : XVID
Идентификатор кодека/Подсказка           : XviD
Продолжительность                        : 1 ч. 38 м.
Битрейт                                  : 1670 Кбит/сек
Ширина                                   : 720 пикселей
Высота                                   : 304 пикселя
Соотношение сторон                       : 2,35:1
Частота кадров                           : 25,000 кадров/сек
Цветовое пространство                    : YUV
Субдискретизация насыщенности            : 4:2:0
Битовая глубина                          : 8 бит
Тип развёртки                            : Прогрессивная
Метод сжатия                             : С потерями
Бит/(Пиксели*Кадры)                      : 0.305
Размер потока                            : 1,15 Гбайт (78%)
Библиотека кодирования                   : XviD 1.2.1 (UTC 2008-12-04)
Аудио
Идентификатор                            : 1
Формат                                   : AC-3
Формат/Информация                        : Audio Coding 3
Расширение режима                        : CM (complete main)
Параметр Endianness формата              : Big
Идентификатор кодека                     : 2000
Продолжительность                        : 1 ч. 38 м.
Вид битрейта                             : Постоянный
Битрейт                                  : 448 Кбит/сек
Каналы                                   : 6 каналов
Расположение каналов                     : Front: L C R, Side: L R, LFE
Частота                                  : 48,0 КГц
Битовая глубина                          : 16 бит
Метод сжатия                             : С потерями
Размер потока                            : 315 Мбайт (21%)
Выравнивание                             : Разделение по промежуткам
Продолжительность промежутка             : 40  мс. (1,00 видеокадр)
Время предзагрузки промежутка            : 500  мс.
Скриншоты:


[Цитировать]



Показать сообщения:    

Текущее время: 07-Дек 21:23

Часовой пояс: UTC + 3


Вы не можете начинать темы
Вы не можете отвечать на сообщения
Вы не можете редактировать свои сообщения
Вы не можете удалять свои сообщения
Вы не можете голосовать в опросах
Вы не можете прикреплять файлы к сообщениям
Вы не можете скачивать файлы

!ВНИМАНИЕ!
Сайт не предоставляет электронные версии произведений, а занимается лишь коллекционированием и каталогизацией ссылок, присылаемых и публикуемых на форуме нашими читателями. Если вы являетесь правообладателем какого-либо представленного материала и не желаете, чтобы ссылка на него находилась в нашем каталоге, свяжитесь с нами, и мы незамедлительно удалим ее. Файлы для обмена на трекере предоставлены пользователями сайта, и администрация не несет ответственности за их содержание. Просьба не заливать файлы, защищенные авторскими правами, а также файлы нелегального содержания!