[ Сегодня идет свободное скачивание без начисления Download ]


Статистика раздачи
Нет
 
   
 
Top  
 
 
-Семь психопатов / Seven Psychopaths (2012) HDRip- Русское название: Семь психопатов
Оригинальное название: Seven Psychopaths
Год выпуска: 2012
Производство: Великобритания / Blueprint Pictures, British Film Institute (BFI), Film4
Жанр: Комедия, криминал
Перевод: Дублированный (Лицензия)
Субтитры: Нет-Дата мировой премьеры: 7 сентября 2012
Дата российской премьеры: 18 октября 2012, «Каравелла DDC»
Дата выхода DVD релиза: 6 февраля 2013, «Кармен Видео»
Режиссер: Мартин МакДона
Продюсер: Грэхэм Броадбент, Питер Чернин, Мартин МакДона
Актеры: Колин Фаррелл, Сэм Рокуэлл, Кристофер Уокен, Эбби Корниш, Том Уэйтс, Вуди Харрельсон, Ольга Куриленко, Желько Иванек, Майкл Питт, Майкл Стулбарг
Описание фильма:
Непутевый писатель потерял вдохновение и никак не может справиться с новым сценарием. Волей случая он оказывается втянутым в похищение собаки, затеянное его эксцентричными дружками. Выясняется, что украденное животное — любимый пёс главного местного гангстера, которому ничего не стоит в два счета вычислить и уничтожить оболтусов.

Рейтинг R - Детям до 17 лет обязательно присутствие родителей
Возраст 18+ - Зрителям, достигшим 18 лет
Продолжительность: 01:50:24
Качество видео: HDRip
Формат: AVI
Видео кодек: XviD
Аудио кодек: AC3
Видео: 720x304 (2.37:1), 23.976 fps, XviD build 65 ~1440 kbps avg, 0.274 bit/pixel
Аудио: 48 kHz, AC3 Dolby Digital, 3/2 (L,C,R,l,r) + LFE ch, ~448 kbps avg

MediaInfo:

General
Complete name : J:\Семь психопатов Seven Psychopahs (2012).avi
Format : AVI
Format/Info : Audio Video Interleave
File size : 1.36 GiB
Duration : 1h 50mn
Overall bit rate : 1 769 Kbps
Writing application : VirtualDubMod 1.5.10.2 (build 2540/release)
Writing library : VirtualDubMod build 2540/release
Video
ID : 0
Format : MPEG-4 Visual
Format profile : Advanced Simple@L5
Format settings, BVOP : 2
Format settings, QPel : No
Format settings, GMC : No warppoints
Format settings, Matrix : Default (MPEG)
Codec ID : XVID
Codec ID/Hint : XviD
Duration : 1h 50mn
Bit rate : 1 376 Kbps
Width : 720 pixels
Height : 304 pixels
Display aspect ratio : 2.35:1
Frame rate : 23.976 fps
Color space : YUV
Chroma subsampling : 4:2:0
Bit depth : 8 bits
Scan type : Progressive
Compression mode : Lossy
Bits/(Pixel*Frame) : 0.262
Stream size : 1.06 GiB (78%)
Writing library : XviD 1.2.1 (UTC 2008-12-04)
Audio
ID : 1
Format : AC-3
Format/Info : Audio Coding 3
Mode extension : CM (complete main)
Format settings, Endianness : Big
Codec ID : 2000
Duration : 1h 50mn
Bit rate mode : Constant
Bit rate : 384 Kbps
Channel(s) : 6 channels
Channel positions : Front: L C R, Side: L R, LFE
Sampling rate : 48.0 KHz
Bit depth : 16 bits
Compression mode : Lossy
Stream size : 303 MiB (22%)
Alignment : Split accross interleaves
Interleave, duration : 42 ms (1.00 video frame)
Interleave, preload duration : 500 ms
Скриншоты:
Время раздачи: С 23:00 до 8:30 (24/7 - круглосуточно)

[Цитировать]

Топик был перенесен из форума Новинки кинопроката в форум Комедия


EnergyStar



Показать сообщения:    

Текущее время: 08-Дек 09:04

Часовой пояс: UTC + 3


Вы не можете начинать темы
Вы не можете отвечать на сообщения
Вы не можете редактировать свои сообщения
Вы не можете удалять свои сообщения
Вы не можете голосовать в опросах
Вы не можете прикреплять файлы к сообщениям
Вы не можете скачивать файлы

!ВНИМАНИЕ!
Сайт не предоставляет электронные версии произведений, а занимается лишь коллекционированием и каталогизацией ссылок, присылаемых и публикуемых на форуме нашими читателями. Если вы являетесь правообладателем какого-либо представленного материала и не желаете, чтобы ссылка на него находилась в нашем каталоге, свяжитесь с нами, и мы незамедлительно удалим ее. Файлы для обмена на трекере предоставлены пользователями сайта, и администрация не несет ответственности за их содержание. Просьба не заливать файлы, защищенные авторскими правами, а также файлы нелегального содержания!