[ Сегодня идет свободное скачивание без начисления Download ]


Статистика раздачи
Нет
 
   
 
Top  
 
 
-Заложница 2 [Расширенная версия] / Taken 2 (2012) HDRip-«Сначала они забрали его дочь. Теперь они пришли за ним.»«Сначала они забрали его дочь. Теперь они пришли за ним.» - Русское название: Заложница 2
Оригинальное название: Taken 2
Год выпуска: 2012
Производство: Франция | Europa Corp., Grive Productions, Canal+
Жанр: Боевик, Триллер, Криминал
Перевод: Дублированный [Лицензия]
Субтитры: Нет-Дата мировой премьеры: 7 сентября 2012
Дата российской премьеры: 4 октября 2012, «Централ Партнершип»
Дата выхода DVD релиза: 4 февраля 2013, «Новый Диск»
Дата выхода Blu-Ray релиза: 4 февраля 2013, «Новый Диск»-Режиссер: Оливье Мегатон
Продюсер: Люк Бессон, Дилой Гюлюн, Мишель Мандавилль
Актеры: Лиам Нисон, Мэгги Грэйс, Фамке Янссен, Лиленд Орсер, Джон Грайз, Д.Б. Суини, Люк Граймс, Раде Шербеджия, Кеворк Маликян, Ален Фиглаж-Роли дублировали: Владимир Антоник, Мария Иващенко, Ольга Зубкова, Андрей Казанцев, Олег Щербинин ...-Описание фильма:
Брайану Миллсу придется расхлебывать последствия своих действий. Спасая свою дочь, он убил главаря банды, у которого — сюрприз! — есть отец по имени Мурад. Мурад жаждет отмщения и описывается как человек, отдающий приказы, но сам никогда никому не подчиняющийся. Мурад берет в заложники Миллса с супругой, и тут уже Ким Миллс нужно будет спасать своих родителей.- -Продолжительность: 01:38:18
Качество видео: HDRip
Формат: AVI
Видео: 720x304 (2.37:1), 23.976 fps, XviD build 50 ~1654 kbps avg, 0.32 bit/pixel
Аудио: 48 kHz, AC3 Dolby Digital, 3/2 (L,C,R,l,r) + LFE ch, ~448.00 kbps avg

Знаете ли вы, что...

• Диего Бонета и Завьер Сэмюэл проходили прослушивание на роль, которая отошла Люку Граймсу.
• Когда Ким использует первую гранату, Брайан насчитывает около 4-х секунд и говорит, что это было на расстоянии в 4,5 км. Скорость звука составляет около 0,34 км/с, так что взрыв был на расстоянии чуть более 1 км. Чтобы пройти путь в 4,5 км звуку понадобилось бы около 13 секунд.
• Когда Брайан поручает Ким рисовать круги на карте, числа, которые он произносит, являются радиусами, а не диаметрами. Если бы она нарисовала окружности, так как он описал, то они были бы гораздо меньше по диаметру, чем было задумано.
• Когда Брайан и Ким плывут на пароме, рука Брайана то лежит у нее на плечах, то резко возвращается в исходное положение.
• Во время сцены автомобильной погони, заднее окно такси простреливают. В нескольких кадрах после этого окно то целое, то снова разбито.
• Несмотря на то, что такси врезается в машины, стены и т. д., оно остается в практически идеальном состоянии на протяжении всей сцены погони.
• Посольство США в Турции находится в Анкаре. В Стамбуле есть только консульство США.
• Безопасность консульства США в Стамбуле обеспечивается местной охраной, а не американской армией. Помимо этого всегда есть барьеры или железобетонные конструкции, которые не позволят врезаться в пропускной пункт так, как это показано в фильме.
• В фильме Стамбул изображается очень неразвитым городом, тогда как в реальной жизни он считается одним из самых больших и самых важных городов Европы. Кроме того, почти все женские персонажи носят паранджу, когда на самом деле это личный выбор каждого, и почти все женщины в Стамбуле не носят ее.

MediaInfo:

General
Complete name : J:\Заложница 2 Taken 2 [UNRATED] (2012).avi
Format : AVI
Format/Info : Audio Video Interleave
File size : 1.45 GiB
Duration : 1h 38mn
Overall bit rate : 2 112 Kbps
Writing application : VirtualDubMod 1.5.10.2 (build 2540/release)
Writing library : VirtualDubMod build 2540/release
Video
ID : 0
Format : MPEG-4 Visual
Format profile : Advanced Simple@L5
Format settings, BVOP : 1
Format settings, QPel : No
Format settings, GMC : No warppoints
Format settings, Matrix : Custom
Codec ID : XVID
Codec ID/Hint : XviD
Duration : 1h 38mn
Bit rate : 1 655 Kbps
Width : 720 pixels
Height : 304 pixels
Display aspect ratio : 2.35:1
Frame rate : 23.976 fps
Color space : YUV
Chroma subsampling : 4:2:0
Bit depth : 8 bits
Scan type : Progressive
Compression mode : Lossy
Bits/(Pixel*Frame) : 0.315
Stream size : 1.14 GiB (78%)
Writing library : XviD 1.2.1 (UTC 2008-12-04)
Audio
ID : 1
Format : AC-3
Format/Info : Audio Coding 3
Mode extension : CM (complete main)
Format settings, Endianness : Big
Codec ID : 2000
Duration : 1h 38mn
Bit rate mode : Constant
Bit rate : 448 Kbps
Channel(s) : 6 channels
Channel positions : Front: L C R, Side: L R, LFE
Sampling rate : 48.0 KHz
Bit depth : 16 bits
Compression mode : Lossy
Stream size : 315 MiB (21%)
Alignment : Aligned on interleaves
Interleave, duration : 42 ms (1.00 video frame)
Interleave, preload duration : 512 ms
Скриншоты: Время раздачи: С 23:00 до 8:30 (24/7 - круглосуточно)

[Цитировать]



Показать сообщения:    

Текущее время: 28-Июн 08:08

Часовой пояс: UTC + 6


Вы не можете начинать темы
Вы не можете отвечать на сообщения
Вы не можете редактировать свои сообщения
Вы не можете удалять свои сообщения
Вы не можете голосовать в опросах
Вы не можете прикреплять файлы к сообщениям
Вы не можете скачивать файлы

!ВНИМАНИЕ!
Сайт не предоставляет электронные версии произведений, а занимается лишь коллекционированием и каталогизацией ссылок, присылаемых и публикуемых на форуме нашими читателями. Если вы являетесь правообладателем какого-либо представленного материала и не желаете, чтобы ссылка на него находилась в нашем каталоге, свяжитесь с нами, и мы незамедлительно удалим ее. Файлы для обмена на трекере предоставлены пользователями сайта, и администрация не несет ответственности за их содержание. Просьба не заливать файлы, защищенные авторскими правами, а также файлы нелегального содержания!