[ Сегодня идет свободное скачивание без начисления Download ]


Статистика раздачи
Нет
 
   
 
Top  
 
 
-Конец света / Fin (2012) BDRip- Русское название: Конец света
Оригинальное название: Fin
Год выпуска: 2012
Производство: Испания / Mod Producciones, Apaches Entertainment, Antena 3 Films
Жанр: Триллер
Перевод: Многоголосый закадровый, профессиональный [лицензия]
Субтитры: Вшитые отключаемые
Язык субтитров: Русский
Дата мировой премьеры: 8 сентября 2012
Дата российской премьеры: 20 декабря 2012, «Премиум Фильм»
Дата выхода DVD релиза: 7 февраля 2013, «CP Дистрибуция»
Дата выхода Blu-Ray релиза: 14 февраля 2013, «CP Дистрибуция»
Режиссер: Хорхе Торрегросса
Актеры: Микель Фернандез, Антонио Гарридо, Даниель Грао, Клара Лаго, Эудженио Мира, Бланка Ромеро, Кармен Руис, Андрес Веленкозо, Марибель Верду
Описание фильма:
Друзья собираются вместе провести выходные в горной хижине. Однако странное явление полностью меняет планы, оставляя их без связи с внешним миром. По дороге за помощью они отдаляются друг от друга, так как происходящее вокруг оказывает на них сильное влияние.

Продолжительность: 01:32:50
Качество видео: BDRip [MysTeRy]
Видеокодек: MPEG-4 AVC/H.264
Битрейт видео: ~2910 Кбит/сек
Размер кадра: 1280x544
Аудиокодек: AC3 5.1
Битрейт аудио: 448 Кбит/сек

MediaInfo:

Общее
Уникальный идентификатор         : 226710455298128244066577163506685632891 (0xAA8ED86FD53184F3BB1EBCFA6998E17B)
Полное имя                       : H:\Конец.света.2012.P.x264.BDRip.mkv
Формат                           : Matroska
Версия формата                   : Version 4 / Version 2
Размер файла                     : 2,18 Гбайт
Продолжительность                : 1 ч. 32 м.
Общий поток                      : 3359 Кбит/сек
Название фильма                  : Конец.света.2012.P.x264.BDRip-MysTeRy
Дата кодирования                 : UTC 2013-02-16 13:08:37
Программа кодирования            : mkvmerge v6.0.0 ('Coming Up For Air') built on Jan 20 2013 09:52:00
Библиотека кодирования           : libebml v1.3.0 + libmatroska v1.4.0
Видео
Идентификатор                    : 1
Формат                           : AVC
Формат/Информация                : Advanced Video Codec
Профиль формата                  : [url=mailto:High@L4.1]High@L4.1[/url]
Параметр CABAC формата           : Да
Параметр ReFrames формата        : 12 кадров
Идентификатор кодека             : V_MPEG4/ISO/AVC
Продолжительность                : 1 ч. 32 м.
Битрейт                          : 2910 Кбит/сек
Ширина                           : 1280 пикселей
Высота                           : 544 пикселя
Соотношение сторон               : 2,35:1
Частота кадров                   : 24,000 кадра/сек
Цветовое пространство            : YUV
Субдискретизация насыщенности    : 4:2:0
Битовая глубина                  : 8 бит
Тип развёртки                    : Прогрессивная
Бит/(Пиксели*Кадры)              : 0.174
Размер потока                    : 1,84 Гбайт (85%)
Заголовок                        : ENCODER........: MysTeRy
Библиотека кодирования           : x264 core 129 r2245 bc13772
Настройки программы              : cabac=1 / ref=12 / deblock=1:-3:-3 / analyse=0x3:0x133 / me=umh / subme=10 / psy=1 / psy_rd=1.00:0.00 / mixed_ref=1 / me_range=32 / chroma_me=1 / trellis=2 / 8x8dct=1 / cqm=0 / deadzone=21,11 / fast_pskip=0 / chroma_qp_offset=-2 / threads=12 / lookahead_threads=2 / sliced_threads=0 / nr=0 / decimate=0 / interlaced=0 / bluray_compat=0 / constrained_intra=0 / bframes=7 / b_pyramid=2 / b_adapt=2 / b_bias=0 / direct=3 / weightb=1 / open_gop=0 / weightp=2 / keyint=250 / keyint_min=23 / scenecut=40 / intra_refresh=0 / rc_lookahead=60 / rc=2pass / mbtree=0 / bitrate=2910 / ratetol=1.0 / qcomp=0.70 / qpmin=0 / qpmax=69 / qpstep=4 / cplxblur=20.0 / qblur=0.5 / vbv_maxrate=50000 / vbv_bufsize=61400 / nal_hrd=none / ip_ratio=1.40 / pb_ratio=1.30 / aq=1:0.90
Язык                             : Spanish
Default                          : Да
Forced                           : Нет
Основные цвета                   : BT.709-5, BT.1361, IEC 61966-2-4, SMPTE RP177
Характеристики трансфера         : BT.709-5, BT.1361
Коэффициенты матрицы             : BT.709-5, BT.1361, IEC 61966-2-4 709, SMPTE RP177
Аудио
Идентификатор                    : 2
Формат                           : AC-3
Формат/Информация                : Audio Coding 3
Расширение режима                : CM (complete main)
Идентификатор кодека             : A_AC3
Продолжительность                : 1 ч. 32 м.
Вид битрейта                     : Постоянный
Битрейт                          : 448 Кбит/сек
Каналы                           : 6 каналов
Расположение каналов             : Front: L C R, Side: L R, LFE
Частота                          : 48,0 КГц
Битовая глубина                  : 16 бит
Метод сжатия                     : С потерями
Размер потока                    : 297 Мбайт (13%)
Заголовок                        : MVO
Язык                             : Russian
Default                          : Да
Forced                           : Нет
Текст
Идентификатор                    : 3
Формат                           : UTF-8
Идентификатор кодека             : S_TEXT/UTF8
Идентификатор кодека/Информация  : UTF-8 Plain Text
Язык                             : Russian
Default                          : Нет
Forced                           : Нет
Меню
00:00:00.000                     : en:00:00:00.000
00:11:07.083                     : en:00:11:07.083
00:20:51.000                     : en:00:20:51.000
00:27:55.917                     : en:00:27:55.917
00:34:38.833                     : en:00:34:38.833
00:40:58.750                     : en:00:40:58.750
00:45:43.958                     : en:00:45:43.958
00:55:57.042                     : en:00:55:57.042
01:07:02.500                     : en:01:07:02.500
01:12:26.167                     : en:01:12:26.167
01:22:04.667                     : en:01:22:04.667
01:26:46.708                     : en:01:26:46.708

x264:

x264 [info]: frame I:987   Avg QP:15.23  size: 96519
x264 [info]: frame P:30871 Avg QP:18.05  size: 31191
x264 [info]: frame B:101824 Avg QP:19.45  size:  9501
x264 [info]: consecutive B-frames:  2.4%  4.4%  7.5% 27.1% 16.6% 30.3%  6.6%  5.0%
Скриншоты:



Время раздачи: 16.30-23.00 до 5 скачавших

[Цитировать]

Топик был перенесен из форума Новинки кинопроката в форум Триллер
Henkok



Показать сообщения:    

Текущее время: 08-Дек 01:19

Часовой пояс: UTC + 3


Вы не можете начинать темы
Вы не можете отвечать на сообщения
Вы не можете редактировать свои сообщения
Вы не можете удалять свои сообщения
Вы не можете голосовать в опросах
Вы не можете прикреплять файлы к сообщениям
Вы не можете скачивать файлы

!ВНИМАНИЕ!
Сайт не предоставляет электронные версии произведений, а занимается лишь коллекционированием и каталогизацией ссылок, присылаемых и публикуемых на форуме нашими читателями. Если вы являетесь правообладателем какого-либо представленного материала и не желаете, чтобы ссылка на него находилась в нашем каталоге, свяжитесь с нами, и мы незамедлительно удалим ее. Файлы для обмена на трекере предоставлены пользователями сайта, и администрация не несет ответственности за их содержание. Просьба не заливать файлы, защищенные авторскими правами, а также файлы нелегального содержания!