[ Сегодня идет свободное скачивание без начисления Download ]


Статистика раздачи
Нет
 
   
 
Top  
 
 
-Травля (Преследуемый) / The Hunted (1995) DVDRip [H.264]- Страна: США
Русское название: Травля (Преследуемый)
Оригинальное название: The Hunted
Год выпуска: 1995
Жанр: Боевик, Драма, Криминал, Восточные единоборства
Описание фильма:
Приехавший по делам фирмы в Японию нью-йоркский бизнесмен Поль Расин проводит романтическую ночь с очаровательной незнакомкой. Став случайным свидетелем ее убийства, он попадает в водоворот кровавых и загадочных событий, связанных с давней враждой между двумя древними и могущественными кланами ниндзя. И, став объектом преследования, Поль принимает бой...
Режиссер: Дж.Ф. Лоутон / J.F. Lawton
Актеры: Кристофер Ламберт, Джон Лоун, Джоан Чен, Йошио Харада, Йоко Симада, Мари Натсуки
Продолжительность: 01:50:09
Перевод: Одноголосый закадровый

Качество: DVDRip
Видео: x264, 720x464@854x464, 23.976 fps, ~1600 kbps avg
Audio 1: AC-3, 192 Kbps, 2 channels, Front: L R, 48.0 KHz, 16 bits, AVO (А. Гаврилов), Russian
Audio 2: MP3, 192 Kbps, 2 channels, 44.1 KHz, Lossy, AVO (Ю. Живов), Russian
Audio 3: AC3, 448 Kbps, 6 channels, Front: L C R, Side: L R, LFE, 48.0 KHz, 16 bits, (Original), English
Субтитры: нет
Сэмпл: Ссылка

Mediainfo

Complete name : Травля. The Hunted. 1995. (боевик, вост. единоборства от J.F. Lawton). DVDRip-AVC.mkv
Format : Matroska
Format version : Version 2
File size : 1.87 GiB
Duration : 1h 50mn
Overall bit rate : 2 434 Kbps
Encoded date : UTC 2013-01-11 06:10:17
Writing application : mkvmerge v5.5.0 ('Healer') built on Apr 6 2012 21:43:24
Writing library : libebml v1.2.3 + libmatroska v1.3.0
Video
ID : 1
Format : AVC
Format/Info : Advanced Video Codec
Format profile : High@L3.1
Format settings, CABAC : Yes
Format settings, ReFrames : 12 frames
Codec ID : V_MPEG4/ISO/AVC
Duration : 1h 50mn
Bit rate : 1 600 Kbps
Width : 720 pixels
Height : 464 pixels
Display aspect ratio : 1.85:1
Original display aspect ratio : 1.552
Frame rate mode : Constant
Frame rate : 23.976 fps
Color space : YUV
Chroma subsampling : 4:2:0
Bit depth : 8 bits
Scan type : Progressive
Bits/(Pixel*Frame) : 0.200
Stream size : 1.20 GiB (64%)
Title : The Hunted (J.F. Lawton) [1995 г., боевик, DVDRip-AVC]
Writing library : x264 core 65
Encoding settings : cabac=1 / ref=12 / deblock=1:0:0 / analyse=0x3:0x133 / me=umh / subme=7 / psy_rd=1.0:0.0 / mixed_ref=0 / me_range=16 / chroma_me=1 / trellis=0 / 8x8dct=1 / cqm=0 / deadzone=21,11 / chroma_qp_offset=-2 / threads=3 / nr=0 / decimate=1 / mbaff=0 / bframes=3 / b_pyramid=1 / b_adapt=1 / b_bias=0 / direct=1 / wpredb=1 / keyint=250 / keyint_min=25 / scenecut=40(pre) / rc=2pass / bitrate=1600 / ratetol=1.0 / qcomp=0.60 / qpmin=10 / qpmax=51 / qpstep=4 / cplxblur=20.0 / qblur=0.5 / ip_ratio=1.40 / pb_ratio=1.30 / aq=1:1.00
Language : English
Default : Yes
Forced : No
Audio #1
ID : 2
Format : AC-3
Format/Info : Audio Coding 3
Mode extension : CM (complete main)
Format settings, Endianness : Big
Codec ID : A_AC3
Duration : 1h 50mn
Bit rate mode : Constant
Bit rate : 192 Kbps
Channel(s) : 2 channels
Channel positions : Front: L R
Sampling rate : 48.0 KHz
Bit depth : 16 bits
Compression mode : Lossy
Stream size : 151 MiB (8%)
Title : AVO (А. Гаврилов)
Language : Russian
Default : Yes
Forced : No
Audio #2
ID : 3
Format : MPEG Audio
Format version : Version 1
Format profile : Layer 3
Codec ID : A_MPEG/L3
Codec ID/Hint : MP3
Duration : 1h 50mn
Bit rate mode : Constant
Bit rate : 192 Kbps
Channel(s) : 2 channels
Sampling rate : 44.1 KHz
Compression mode : Lossy
Stream size : 151 MiB (8%)
Title : AVO (Ю. Живов)
Writing library : LAME3.97
Encoding settings : -m s -V 4 -q 2 -lowpass 18.6 -b 192
Language : Russian
Default : No
Forced : No
Audio #3
ID : 4
Format : AC-3
Format/Info : Audio Coding 3
Mode extension : CM (complete main)
Format settings, Endianness : Big
Codec ID : A_AC3
Duration : 1h 50mn
Bit rate mode : Constant
Bit rate : 448 Kbps
Channel(s) : 6 channels
Channel positions : Front: L C R, Side: L R, LFE
Sampling rate : 48.0 KHz
Bit depth : 16 bits
Compression mode : Lossy
Stream size : 353 MiB (18%)
Title : Original
Language : English
Default : No
Forced : No

Дополнительная информация о релизе

За видеоряд спасибо xspider.
Профессиональный (двухголосый) перевод из его рипа удалён по причине полной "убитости" дорожки.
Рип пересобран мною (Collaborationist) с двумя авторскими переводами в mkvmerge.
Рип полностью работоспособный. Рассинхрона/артефактов, рывков изображения нет.
Перемотка в штатном режиме. Для сомневающихся - сэмпл, в котором присутствуют все аудиодороги.
Скриншоты:

Моё мнение о фильме

Must see.
Время раздачи: С 10:00 до 17:00 (мск)

[Цитировать]



Показать сообщения:    

Текущее время: 08-Дек 05:09

Часовой пояс: UTC + 3


Вы не можете начинать темы
Вы не можете отвечать на сообщения
Вы не можете редактировать свои сообщения
Вы не можете удалять свои сообщения
Вы не можете голосовать в опросах
Вы не можете прикреплять файлы к сообщениям
Вы не можете скачивать файлы

!ВНИМАНИЕ!
Сайт не предоставляет электронные версии произведений, а занимается лишь коллекционированием и каталогизацией ссылок, присылаемых и публикуемых на форуме нашими читателями. Если вы являетесь правообладателем какого-либо представленного материала и не желаете, чтобы ссылка на него находилась в нашем каталоге, свяжитесь с нами, и мы незамедлительно удалим ее. Файлы для обмена на трекере предоставлены пользователями сайта, и администрация не несет ответственности за их содержание. Просьба не заливать файлы, защищенные авторскими правами, а также файлы нелегального содержания!