[ Сегодня идет свободное скачивание без начисления Download ]


Статистика раздачи
Нет
 
   
 
Top  
 
 
-Синистер / Sinister (2012) BDRip-«Увидевший его не спасётся»- Русское название: Синистер
Оригинальное название: Sinister
Год выпуска: 2012
Производство: США / Alliance Films, Automatik Entertainment, Blumhouse Productions
Жанр: Ужасы, Триллер, Детектив
Перевод: Дублированный [лицензия]
Субтитры: Отсутствуют-Дата мировой премьеры: 11 марта 2012
Дата российской премьеры: 11 октября 2012, «Top Film Distribution»
Дата выхода DVD релиза: 22 ноября 2012, «Новый Диск», «New Dream media»-Режиссер: Скотт Дерриксон
Актеры: Итан Хоук, Джульет Райлэнс, Фред Долтон Томпсон, Джеймс Рэнсон, Майкл Холл Д’Аддарио, Клер Фоли, Роб Райли, Тэвис Смайли, Джанет Заппала, Виктория Ли-Описание фильма:
Вместе с семьей автор детективов поселяется в небольшом городке, в доме, где почти год назад развернулась леденящая душу трагедия — были убиты все жильцы. Писатель случайно находит видеозаписи, которые являются ключом к тайне преступления. Но ничто не дается даром: в доме начинают происходить жуткие вещи и теперь под угрозой жизнь его близких. Они столкнулись с чем-то, от чего нет спасения…- -Продолжительность: 01:49:38
Качество видео: BDRip-Видеокодек: MPEG-4 AVC/H.264
Битрейт видео: ~856 Кбит/сек
Размер кадра: 752x312
Аудиокодек: MP3, 2 ch
Битрейт аудио: ~96 Кбит/сек

MediaInfo:

Общее
Уникальный идентификатор : 174111127552805856430132652313808291440 (0x82FC955B0BB4485DA3C4BDF271254670)
Полное имя : D:\Торрент раздача\Sinister.2012.BDRip.-AVC.x264.mkv
Формат : Matroska
Версия формата : Version 2
Размер файла : 747 Мбайт
Продолжительность : 1 ч. 49 м.
Режим общего битрейта : Переменный
Общий поток : 952 Кбит/сек
Дата кодирования : UTC 2013-01-29 14:28:30
Программа кодирования : mkvmerge v5.8.0 ('No Sleep / Pillow') built on Sep 2 2012 15:37:04
Библиотека кодирования : libebml v1.2.3 + libmatroska v1.3.0
Видео
Идентификатор : 1
Формат : AVC
Формат/Информация : Advanced Video Codec
Профиль формата : High@L3.0
Параметр CABAC формата : Да
Параметр ReFrames формата : 4 кадра
Идентификатор кодека : V_MPEG4/ISO/AVC
Продолжительность : 1 ч. 49 м.
Битрейт : 856 Кбит/сек
Ширина : 752 пикселя
Высота : 312 пикселей
Соотношение сторон : 2,40:1
Режим частоты кадров : Постоянный
Частота кадров : 23,976 кадра/сек
Цветовое пространство : YUV
Субдискретизация насыщенности : 4:2:0
Битовая глубина : 8 бит
Тип развёртки : Прогрессивная
Бит/(Пиксели*Кадры) : 0.152
Размер потока : 657 Мбайт (88%)
Библиотека кодирования : x264 core 125 r2208 d9d2288
Настройки программы : cabac=1 / ref=3 / deblock=1:0:0 / analyse=0x3:0x113 / me=hex / subme=7 / psy=1 / psy_rd=1.00:0.00 / mixed_ref=1 / me_range=16 / chroma_me=1 / trellis=1 / 8x8dct=1 / cqm=0 / deadzone=21,11 / fast_pskip=1 / chroma_qp_offset=-2 / threads=3 / lookahead_threads=1 / sliced_threads=0 / nr=0 / decimate=1 / interlaced=0 / bluray_compat=0 / constrained_intra=0 / bframes=3 / b_pyramid=2 / b_adapt=1 / b_bias=0 / direct=3 / weightb=1 / open_gop=0 / weightp=2 / keyint=250 / keyint_min=23 / scenecut=40 / intra_refresh=0 / rc_lookahead=40 / rc=2pass / mbtree=1 / bitrate=856 / ratetol=1.0 / qcomp=0.60 / qpmin=0 / qpmax=69 / qpstep=4 / cplxblur=20.0 / qblur=0.5 / ip_ratio=1.40 / aq=1:1.00
Default : Да
Forced : Нет
Аудио
Идентификатор : 2
Формат : MPEG Audio
Версия формата : Version 1
Профиль формата : Layer 3
Идентификатор кодека : A_MPEG/L3
Идентификатор кодека/Подсказка : MP3
Продолжительность : 1 ч. 47 м.
Вид битрейта : Переменный
Битрейт : 96,0 Кбит/сек
Каналы : 2 канала
Частота : 32,0 КГц
Метод сжатия : С потерями
Размер потока : 73,8 Мбайт (10%)
Библиотека кодирования : LAME3.99r
Настройки программы : -m s -V 4 -q 2 -lowpass 15.1 --abr 96
Default : Да
Forced : Нет
Скриншоты:
Время раздачи: 8:00 - 23:30

[Цитировать]



Показать сообщения:    

Текущее время: 09-Дек 01:11

Часовой пояс: UTC + 3


Вы не можете начинать темы
Вы не можете отвечать на сообщения
Вы не можете редактировать свои сообщения
Вы не можете удалять свои сообщения
Вы не можете голосовать в опросах
Вы не можете прикреплять файлы к сообщениям
Вы не можете скачивать файлы

!ВНИМАНИЕ!
Сайт не предоставляет электронные версии произведений, а занимается лишь коллекционированием и каталогизацией ссылок, присылаемых и публикуемых на форуме нашими читателями. Если вы являетесь правообладателем какого-либо представленного материала и не желаете, чтобы ссылка на него находилась в нашем каталоге, свяжитесь с нами, и мы незамедлительно удалим ее. Файлы для обмена на трекере предоставлены пользователями сайта, и администрация не несет ответственности за их содержание. Просьба не заливать файлы, защищенные авторскими правами, а также файлы нелегального содержания!