[ Сегодня идет свободное скачивание без начисления Download ]


Статистика раздачи
Нет
 
   
 
Top  
 
 
-Шальные деньги: Стокгольмский нуар / Snabba cash II (2012) HDRip- Русское название: Шальные деньги: Стокгольмский нуар
Оригинальное название: Snabba cash II
Год выпуска: 2012
Производство: Швеция / Film i V?st, Tre V?nner Produktion AB
Жанр: Боевик, Триллер, Криминал
Перевод: Двуголосый закадровый, любительский
Субтитры: Отсутствуют-Дата мировой премьеры: 10 августа 2012-Режиссер: Бабак Наджафи
Продюсер: Фредерик Викстрем, Джессика Аск, Клаус Бассинер
Актеры: Матиас Падин, Драгомир Мрсич, Фарес Фарес, Мадлен Мартин, Деян Чукич, Джоэль Спира, Лиза Хенни, Рикардо Марселионо Аранеда Морено, Луис Сифунтес, Анника Рюберг Виттембури-Описание фильма:
После трех лет заключения Ю. В. получает первую «увольнительную», но обстоятельства складываются так, что вернуться за решетку он уже не может… Скрывающийся от правосудия чилиец Хорхе планирует мега-сделку с кокаином, которая должна обогатить его раз и на всегда, но жизнь вносит жестокие коррективы в его план… Сумка с принадлежащими югославской мафии 10 миллионами крон путешествует по Стокгольму, переходя из рук в руки и оставляя за собой кровавый след…- -Продолжительность: 01:39:46
Качество видео: HDRip-Видеокодек: Xvid
Битрейт видео: ~779 Кбит/сек
Размер кадра: 720x304
Аудиокодек: MP3 (2 ch)
Битрейт аудио: 192 Кбит/сек

MediaInfo:

Общее
Полное имя : D:\Торрент раздача\Shalnye.dengy.2.2012.L2.HDRip.avi
Формат : AVI
Формат/Информация : Audio Video Interleave
Размер файла : 700 Мбайт
Продолжительность : 1 ч. 39 м.
Общий поток : 980 Кбит/сек
Программа кодирования : VirtualDubMod 1.5.10.2 (build 2542/release)
Библиотека кодирования : VirtualDub build 32661/release
Видео
Идентификатор : 0
Формат : MPEG-4 Visual
Профиль формата : Advanced Simple@L5
Параметр BVOP формата : 2
Параметр QPel формата : Нет
Параметр GMC формата : Без точки перехода
Параметр матрицы формата : Default (H.263)
Режим смешивания : Сжатый битовый поток
Идентификатор кодека : XVID
Идентификатор кодека/Подсказка : XviD
Продолжительность : 1 ч. 39 м.
Битрейт : 779 Кбит/сек
Ширина : 720 пикселей
Высота : 304 пикселя
Соотношение сторон : 2,35:1
Частота кадров : 24,000 кадра/сек
Цветовое пространство : YUV
Субдискретизация насыщенности : 4:2:0
Битовая глубина : 8 бит
Тип развёртки : Прогрессивная
Метод сжатия : С потерями
Бит/(Пиксели*Кадры) : 0.148
Размер потока : 556 Мбайт (79%)
Библиотека кодирования : XviD 64
Аудио
Идентификатор : 1
Формат : MPEG Audio
Версия формата : Version 1
Профиль формата : Layer 3
Режим : Joint stereo
Идентификатор кодека : 55
Идентификатор кодека/Подсказка : MP3
Продолжительность : 1 ч. 39 м.
Вид битрейта : Постоянный
Битрейт : 192 Кбит/сек
Каналы : 2 канала
Частота : 48,0 КГц
Метод сжатия : С потерями
Размер потока : 137 Мбайт (20%)
Выравнивание : Разделение по промежуткам
Продолжительность промежутка : 42 мс. (1,00 видеокадр)
Время предзагрузки промежутка : 500 мс.
Скриншоты:
Время раздачи: 24/7

[Цитировать]



Показать сообщения:    

Текущее время: 10-Дек 21:25

Часовой пояс: UTC + 3


Вы не можете начинать темы
Вы не можете отвечать на сообщения
Вы не можете редактировать свои сообщения
Вы не можете удалять свои сообщения
Вы не можете голосовать в опросах
Вы не можете прикреплять файлы к сообщениям
Вы не можете скачивать файлы

!ВНИМАНИЕ!
Сайт не предоставляет электронные версии произведений, а занимается лишь коллекционированием и каталогизацией ссылок, присылаемых и публикуемых на форуме нашими читателями. Если вы являетесь правообладателем какого-либо представленного материала и не желаете, чтобы ссылка на него находилась в нашем каталоге, свяжитесь с нами, и мы незамедлительно удалим ее. Файлы для обмена на трекере предоставлены пользователями сайта, и администрация не несет ответственности за их содержание. Просьба не заливать файлы, защищенные авторскими правами, а также файлы нелегального содержания!