[ Сегодня идет свободное скачивание без начисления Download ]


Статистика раздачи
Нет
 
   
 
Top  
 
 
-Огонь в моём сердце / Fuoco su di me [H.264] (2006) DVDRip- Русское название: Огонь в моём сердце
Оригинальное название: Fuoco su di me
Год выпуска: 2006
Жанр: Драма, исторический
Описание фильма:
1815 год. Последние дни правления короля Неаполя и маршала Франции - Йоахима Мюрата. Любимец и ближайший соратник Наполеона, он пережил головокружительной взлет и трагический финал своей карьеры. Во время последней отчаянной попытки Мюрата вернуть себе неаполитанский трон, в город приезжает молодой солдат наполеоновской армии по имени Еугенио. Вернувшись в родной Неаполь из Франции, чтобы оправиться от тяжелой раны, полученной в сражении, Еугенио с головой окунается в бурную жизнь мятежного города. Здесь же он находит истинную любовь и новый стимул, чтобы двигаться вперед, чтобы жить...
Режиссер: Ламберто Ламбертини / Lamberto Lambertini
Актеры: Омар Шариф / Omar Sharif, Массимилиано Варрезе / Massimiliano Varrese, Сонали Кулкарни / Sonali Kulkarni, Золтан Ратоти / Zoltan Ratoti, Маурицио Донадони / Maurizio Donadoni, Никола Ди Пинто / Nicola Di Pinto, Антонелла Стефануччи / Antonella Stefanucci
Продолжительность: 01:40:12
Перевод: Двуголосый закадровый

Видеокодек: MPEG-4 AVC/H.264
Битрейт видео: ~2204 Кбит/сек
Размер кадра: 1024x576
Качество видео: DVDRip
Audio1: AC3 2.0, 192 Кбит/сек - русский
Audio2: AC3 2.0, 192 Кбит/сек - итальянский

MediaInfo:

Общее
Уникальный идентификатор : 168348648403719580577546155723716462494 (0x7EA6C532C2870C1E037BA147C20E879E)
Полное имя : G:\!V\2013\Огонь в моём сердце DVDRip\Огонь в моём сердце [H.264] DVDRip.mkv
Формат : Matroska
Версия формата : Version 2
Размер файла : 1,85 Гбайт
Продолжительность : 1 ч. 40 м.
Общий поток : 2641 Кбит/сек
Программа кодирования : Lavf51.12.1
Библиотека кодирования : Lavf51.12.1
Видео
Идентификатор : 1
Формат : AVC
Формат/Информация : Advanced Video Codec
Профиль формата : Baseline@L3.1
Параметр CABAC формата : Нет
Параметр ReFrames формата : 1 кадр
Параметр GOP формата : M=1, N=12
Идентификатор кодека : V_MPEG4/ISO/AVC
Продолжительность : 1 ч. 40 м.
Битрейт : 2204 Кбит/сек
Ширина : 1024 пикселя
Высота : 576 пикселей
Соотношение сторон : 16:9
Режим частоты кадров : Постоянный
Частота кадров : 25,000 кадров/сек
Цветовое пространство : YUV
Субдискретизация насыщенности : 4:2:0
Битовая глубина : 8 бит
Тип развёртки : Прогрессивная
Бит/(Пиксели*Кадры) : 0.149
Размер потока : 1,54 Гбайт (83%)
Default : Да
Forced : Нет
Аудио #1
Идентификатор : 2
Формат : AC-3
Формат/Информация : Audio Coding 3
Расширение режима : CM (complete main)
Параметр Endianness формата : Big
Идентификатор кодека : A_AC3
Продолжительность : 1 ч. 40 м.
Вид битрейта : Постоянный
Битрейт : 192 Кбит/сек
Каналы : 2 канала
Расположение каналов : Front: L R
Частота : 48,0 КГц
Битовая глубина : 16 бит
Метод сжатия : С потерями
Размер потока : 138 Мбайт (7%)
Default : Да
Forced : Нет
Аудио #2
Идентификатор : 3
Формат : AC-3
Формат/Информация : Audio Coding 3
Расширение режима : CM (complete main)
Параметр Endianness формата : Big
Идентификатор кодека : A_AC3
Продолжительность : 1 ч. 40 м.
Вид битрейта : Постоянный
Битрейт : 192 Кбит/сек
Каналы : 2 канала
Расположение каналов : Front: L R
Частота : 48,0 КГц
Битовая глубина : 16 бит
Метод сжатия : С потерями
Размер потока : 138 Мбайт (7%)
Default : Да
Forced : Нет
Скриншоты:

[Цитировать]



Показать сообщения:    

Текущее время: 10-Дек 15:50

Часовой пояс: UTC + 3


Вы не можете начинать темы
Вы не можете отвечать на сообщения
Вы не можете редактировать свои сообщения
Вы не можете удалять свои сообщения
Вы не можете голосовать в опросах
Вы не можете прикреплять файлы к сообщениям
Вы не можете скачивать файлы

!ВНИМАНИЕ!
Сайт не предоставляет электронные версии произведений, а занимается лишь коллекционированием и каталогизацией ссылок, присылаемых и публикуемых на форуме нашими читателями. Если вы являетесь правообладателем какого-либо представленного материала и не желаете, чтобы ссылка на него находилась в нашем каталоге, свяжитесь с нами, и мы незамедлительно удалим ее. Файлы для обмена на трекере предоставлены пользователями сайта, и администрация не несет ответственности за их содержание. Просьба не заливать файлы, защищенные авторскими правами, а также файлы нелегального содержания!