[ Сегодня идет свободное скачивание без начисления Download ]


Статистика раздачи
Нет
 
   
 
Top  
 
 
-Комната Марвина / Marvins Room (1996) HDRip Русское название: Комната Марвина
Оригинальное название: Marvin's Room
Год выпуска: 1996
Жанр: Драма
Описание фильма: Две сестры совершенно не похожи друг на друга. Кроткая сердечная Бесси посвятила всю себя другим. Именно она возложила на себя ответственность за семью, взяла на себя заботы о старом больном отце, а потом сама тяжело заболевает. Вспыльчивая, неуравновешенная Ли, замкнувшаяся в собственном эгоизме, потеряла контакт с семнадцатилетним сыном, отношения с которым приходится восстанавливать с большим трудом.
Режиссер: Джерри Закс
Актеры: Мэрил Стрип, Дайан Китон, Леонардо ДиКаприо, Роберт Де Ниро, Хьюм Кронин, Гвен Вердон, Хэл Скардино, Дэн Хедайя, Марго Мартиндейл, Синтия Никсон ...
Продолжительность: 01:38:23
Перевод: Многоголосый закадровый (профессиональный)

Дата мировой премьеры: 18 декабря 1996
Видеокодек: Xvid
Битрейт видео: ~1725 kbps
Размер кадра: 720x400
Качество видео: HDRip
Аудиокодек: AC3 5.1
Битрейт аудио: 384.00 kbps
&

MediaInfo

Общее
Полное имя : D:\Marvins Room.1996.HDRip.avi
Формат : AVI
Формат/Информация : Audio Video Interleave
Профиль формата : OpenDML
Настройки формата : rec
Размер файла : 1,45 Гбайт
Продолжительность : 1 ч. 38 м.
Общий поток : 2114 Кбит/сек
Название фильма : Комната Марвина / Marvin's Room (1996) HDRip rip by Rulya74
Программа кодирования : AVI-Mux GUI 1.17.8.3, Feb 16 201019:42:50
Видео
Идентификатор : 0
Формат : MPEG-4 Visual
Профиль формата : Advanced Simple@L5
Параметр BVOP формата : 3
Параметр QPel формата : Нет
Параметр GMC формата : Без точки перехода
Параметр матрицы формата : Выборочная
Режим смешивания : Сжатый битовый поток
Идентификатор кодека : XVID
Идентификатор кодека/Подсказка : XviD
Продолжительность : 1 ч. 38 м.
Битрейт : 1725 Кбит/сек
Ширина : 720 пикселей
Высота : 400 пикселей
Соотношение сторон : 16:9
Частота кадров : 23,976 кадра/сек
Цветовое пространство : YUV
Субдискретизация насыщенности : 4:2:0
Битовая глубина : 8 бит
Тип развёртки : Прогрессивная
Метод сжатия : С потерями
Бит/(Пиксели*Кадры) : 0.250
Размер потока : 1,19 Гбайт (82%)
Библиотека кодирования : XviD 65
Аудио
Идентификатор : 1
Формат : AC-3
Формат/Информация : Audio Coding 3
Расширение режима : CM (complete main)
Параметр Endianness формата : Big
Идентификатор кодека : 2000
Продолжительность : 1 ч. 38 м.
Вид битрейта : Постоянный
Битрейт : 384 Кбит/сек
Каналы : 6 каналов
Расположение каналов : Front: L C R, Side: L R, LFE
Частота : 48,0 КГц
Битовая глубина : 16 бит
Метод сжатия : С потерями
Размер потока : 270 Мбайт (18%)
Выравнивание : Соединение по промежуткам
Продолжительность промежутка : 64 мс. (1,54 видеокадра)
Время предзагрузки промежутка : 192 мс.
Заголовок : Профессиональный (многоголосый закадровый)
Скриншоты:

Время раздачи: с 8:00 до 23:00

[Цитировать]



Показать сообщения:    

Текущее время: 09-Дек 16:39

Часовой пояс: UTC + 3


Вы не можете начинать темы
Вы не можете отвечать на сообщения
Вы не можете редактировать свои сообщения
Вы не можете удалять свои сообщения
Вы не можете голосовать в опросах
Вы не можете прикреплять файлы к сообщениям
Вы не можете скачивать файлы

!ВНИМАНИЕ!
Сайт не предоставляет электронные версии произведений, а занимается лишь коллекционированием и каталогизацией ссылок, присылаемых и публикуемых на форуме нашими читателями. Если вы являетесь правообладателем какого-либо представленного материала и не желаете, чтобы ссылка на него находилась в нашем каталоге, свяжитесь с нами, и мы незамедлительно удалим ее. Файлы для обмена на трекере предоставлены пользователями сайта, и администрация не несет ответственности за их содержание. Просьба не заливать файлы, защищенные авторскими правами, а также файлы нелегального содержания!