[ Сегодня идет свободное скачивание без начисления Download ]


Статистика раздачи
Нет
 
   
 
Top  
 
 
-Зомби на Диком Западе / Полуживой или мертвый / Undead or Alive: A Zombedy (2007) DVDRip [H.264]- Страна: США
Русское название: Зомби на Диком Западе / Полуживой или мертвый
Оригинальное название: Undead or Alive: A Zombedy
Год выпуска: 2007
Жанр: Ужасы, Комедия, Вестерн
Описание фильма:
Два неудачника, солдат-дезертир Элмер Уинслоу и горе-ковбой Люк Бадд, умудряются ограбить мерзавца-шерифа в маленьком городке… где-то на Диком Западе. Спасаясь от головорезов, посланных по их следу, они и не подозревают, что Джеронимо уже проклял «белого человека», чума зомби охватывает всю страну и, что теперь только супер-секси племянница Великого Вождя их единственная надежда на выживание…
Режиссер: Глазгоу Филлипс / Glasgow Phillips
Актеры: Лью Александр, Тодд Андерсон, Ричард Барела, Мэтт Бессер, Бретт Брок, Ричард Бучер, Крис Коппола, Джино Крогнейл, Джеффри Дж. Дашнау, Джеймс Дентон, Лесли Джордан, Крис Кэттэн, Кристин Мишель, Крис Нельсон
Продолжительность: 01:27:35
Перевод: Профессиональный (двухголосный закадровый) Вест

Качество видео: DVDRip [H.264]
Формат видео: MKV
Видео: x264, [email protected] (2.37:1), 25 fps, ~1463 kbps avg, 0.192 bit/pixel
Аудио 1: AC3 Dolby Digital, 48 kHz, 3/2 (L,C,R,l,r) + LFE ch, ~384.00 kbps avg [RU]
Аудио 2: AC3 Dolby Digital, 48 kHz, 3/2 (L,C,R,l,r) + LFE ch, ~384.00 kbps avg [Original]
Cубтитры: нет
Сэмпл: Ссылка

Mediainfo

General
Complete name : Зомби на Диком Западе (Полуживой или мертвый). Undead or Alive. A Zombedy. 2007. (вестерн, зомби-комедия). DVDRip-AVC.mkv
Format : Matroska
Format version : Version 2
File size : 1.37 GiB
Duration : 1h 27mn
Overall bit rate : 2 233 Kbps
Encoded date : UTC 2011-05-09 12:32:46
Writing application : mkvmerge v4.7.0 ('Just Like You Imagined') built on Apr 21 2011 01:13:14
Writing library : libebml v1.2.0 + libmatroska v1.1.0
Video
ID : 1
Format : AVC
Format/Info : Advanced Video Codec
Format profile : [email protected]
Format settings, CABAC : Yes
Format settings, ReFrames : 5 frames
Codec ID : V_MPEG4/ISO/AVC
Duration : 1h 27mn
Bit rate : 1 463 Kbps
Width : 704 pixels
Height : 432 pixels
Display aspect ratio : 2.40:1
Frame rate mode : Constant
Frame rate : 25.000 fps
Color space : YUV
Chroma subsampling : 4:2:0
Bit depth : 8 bits
Scan type : Progressive
Bits/(Pixel*Frame) : 0.192
Stream size : 890 MiB (64%)
Writing library : x264 core 115 r1947kMod b5a8ad7
Encoding settings : cabac=1 / ref=5 / deblock=1:-1:-1 / analyse=0x3:0x133 / me=umh / subme=9 / psy=1 / fade_compensate=0.00 / psy_rd=1.00:0.15 / mixed_ref=1 / me_range=24 / chroma_me=1 / trellis=2 / 8x8dct=1 / cqm=0 / deadzone=21,11 / fast_pskip=0 / chroma_qp_offset=-3 / threads=6 / sliced_threads=0 / nr=0 / decimate=0 / interlaced=0 / bluray_compat=0 / constrained_intra=0 / bframes=8 / b_pyramid=2 / b_adapt=2 / b_bias=0 / direct=3 / weightb=1 / open_gop=0 / weightp=2 / keyint=250 / keyint_min=25 / scenecut=40 / intra_refresh=0 / rc_lookahead=50 / rc=2pass / mbtree=0 / bitrate=1463 / ratetol=1.0 / qcomp=0.60 / qpmin=0 / qpmax=69 / qpstep=4 / cplxblur=20.0 / qblur=0.5 / vbv_maxrate=10000 / vbv_bufsize=10000 / nal_hrd=none / ip_ratio=1.40 / pb_ratio=1.30 / aq=1:1.00
Language : English
Default : Yes
Forced : No
Audio #1
ID : 2
Format : AC-3
Format/Info : Audio Coding 3
Mode extension : CM (complete main)
Format settings, Endianness : Big
Codec ID : A_AC3
Duration : 1h 27mn
Bit rate mode : Constant
Bit rate : 384 Kbps
Channel(s) : 6 channels
Channel positions : Front: L C R, Side: L R, LFE
Sampling rate : 48.0 KHz
Bit depth : 16 bits
Compression mode : Lossy
Stream size : 241 MiB (17%)
Language : Russian
Default : Yes
Forced : No
Audio #2
ID : 3
Format : AC-3
Format/Info : Audio Coding 3
Mode extension : CM (complete main)
Format settings, Endianness : Big
Codec ID : A_AC3
Duration : 1h 27mn
Bit rate mode : Constant
Bit rate : 384 Kbps
Channel(s) : 6 channels
Channel positions : Front: L C R, Side: L R, LFE
Sampling rate : 48.0 KHz
Bit depth : 16 bits
Compression mode : Lossy
Stream size : 241 MiB (17%)
Language : English
Default : No
Forced : No
Скриншоты:


Время раздачи: С 10:00 до 17:00 (мск)

[Цитировать]



Показать сообщения:    

Текущее время: 04-Дек 02:55

Часовой пояс: UTC + 3


Вы не можете начинать темы
Вы не можете отвечать на сообщения
Вы не можете редактировать свои сообщения
Вы не можете удалять свои сообщения
Вы не можете голосовать в опросах
Вы не можете прикреплять файлы к сообщениям
Вы не можете скачивать файлы

!ВНИМАНИЕ!
Сайт не предоставляет электронные версии произведений, а занимается лишь коллекционированием и каталогизацией ссылок, присылаемых и публикуемых на форуме нашими читателями. Если вы являетесь правообладателем какого-либо представленного материала и не желаете, чтобы ссылка на него находилась в нашем каталоге, свяжитесь с нами, и мы незамедлительно удалим ее. Файлы для обмена на трекере предоставлены пользователями сайта, и администрация не несет ответственности за их содержание. Просьба не заливать файлы, защищенные авторскими правами, а также файлы нелегального содержания!