[ Сегодня идет свободное скачивание без начисления Download ]


Статистика раздачи
Нет
 
   
 
Top  
 
 
-Эпилог / Wit (2001) DVDRip- Русское название: Эпилог
Оригинальное название: Wit
Год выпуска: 2001
Жанр: Драма
Описание фильма:
Драма по пьесе Маргарет Эдсон. 48-летней женщине сообщают страшный диагноз. Ей предлагают лечение, однако врачи руководствуются прежде всего собственными соображениями. В пациентке они видят объект научных исследований. Лишь один человек в клинике – простая сиделка, афро-американка, проявляет подлинную доброту. Обреченная женщина – профессор литературы. Она пытается найти для себя опору в стихах английского поэта 17 века Джона Донна, много писавшего о смерти...
Режиссер: Майк Николс
Актеры: Эмма Томпсон, Кристофер Ллойд, Айлин Эткинс, Одра МакДональд, Джонатан М. Вудворд, Гарольд Пинтер, Ребекка Лори, Су Лин Луи, Раффаэлло Дегруттола, Микель Браун
Продолжительность: 01:39:17
Перевод: Двуголосый закадровый

Видеокодек: Xvid
Битрейт видео: ~1700 kb/s
Размер кадра: 704 x 400
Качество видео: DVDRip
Аудиокодек: AC3
Aудио:
1. 192 kb/s cbr 2 канала русский
2. 192 kb/s cbr 2 канала английский

MediaInfo

Общее
Полное имя : Эпилог 2001.avi
Формат : AVI
Формат/Информация : Audio Video Interleave
Размер файла : 1,46 Гбайт
Продолжительность : 1 ч. 39 м.
Общий поток : 2098 Кбит/сек
Программа кодирования : VirtualDubModRus 1.5.10.2 (build 2542/release)
Библиотека кодирования : VirtualDubMod build 2542/release
Видео
Идентификатор : 0
Формат : MPEG-4 Visual
Профиль формата : Advanced Simple@L5
Параметр BVOP формата : 4
Параметр QPel формата : Нет
Параметр GMC формата : Без точки перехода
Параметр матрицы формата : Default (MPEG)
Идентификатор кодека : XVID
Идентификатор кодека/Подсказка : XviD
Продолжительность : 1 ч. 39 м.
Битрейт : 1700 Кбит/сек
Ширина : 704 пикселя
Высота : 400 пикселей
Соотношение сторон : 16:9
Частота кадров : 23,976 кадра/сек
Цветовое пространство : YUV
Субдискретизация насыщенности : 4:2:0
Битовая глубина : 8 бит
Тип развёртки : Прогрессивная
Метод сжатия : С потерями
Бит/(Пиксели*Кадры) : 0.252
Размер потока : 1,18 Гбайт (81%)
Библиотека кодирования : XviD 1.2.1 (UTC 2008-12-04)
Аудио #1
Идентификатор : 1
Формат : AC-3
Формат/Информация : Audio Coding 3
Расширение режима : CM (complete main)
Параметр Endianness формата : Big
Идентификатор кодека : 2000
Продолжительность : 1 ч. 39 м.
Вид битрейта : Постоянный
Битрейт : 192 Кбит/сек
Каналы : 2 канала
Расположение каналов : Front: L R
Частота : 48,0 КГц
Битовая глубина : 16 бит
Метод сжатия : С потерями
Размер потока : 136 Мбайт (9%)
Выравнивание : Разделение по промежуткам
Продолжительность промежутка : 42 мс. (1,00 видеокадр)
Время предзагрузки промежутка : 500 мс.
Аудио #2
Идентификатор : 2
Формат : AC-3
Формат/Информация : Audio Coding 3
Расширение режима : CM (complete main)
Параметр Endianness формата : Big
Идентификатор кодека : 2000
Продолжительность : 1 ч. 39 м.
Вид битрейта : Постоянный
Битрейт : 192 Кбит/сек
Каналы : 2 канала
Расположение каналов : Front: L R
Частота : 48,0 КГц
Битовая глубина : 16 бит
Метод сжатия : С потерями
Размер потока : 136 Мбайт (9%)
Выравнивание : Разделение по промежуткам
Продолжительность промежутка : 42 мс. (1,00 видеокадр)
Время предзагрузки промежутка : 500 мс.
Скриншоты:

Награды

Золотой глобус, 2002 год
Номинации (2):
Лучшая актриса мини-сериала или фильма на ТВ (Эмма Томпсон)
Лучший мини-сериал или фильм на ТВ
Берлинский кинофестиваль, 2001 год
Победитель (1):
Специальный приз экуменического (христианского) жюри (конкурсная программа)
Номинации (1):
Золотой Медведь
Эмми, 2001 год
Номинации (2):
Лучшая женская роль в мини-сериале или телефильме (Эмма Томпсон)
Лучшая женская роль второго плана в мини-сериале или телефильме (Одра МакДональд)
Время раздачи: С 9:00 до 22:00

[Цитировать]



Показать сообщения:    

Текущее время: 11-Дек 08:57

Часовой пояс: UTC + 3


Вы не можете начинать темы
Вы не можете отвечать на сообщения
Вы не можете редактировать свои сообщения
Вы не можете удалять свои сообщения
Вы не можете голосовать в опросах
Вы не можете прикреплять файлы к сообщениям
Вы не можете скачивать файлы

!ВНИМАНИЕ!
Сайт не предоставляет электронные версии произведений, а занимается лишь коллекционированием и каталогизацией ссылок, присылаемых и публикуемых на форуме нашими читателями. Если вы являетесь правообладателем какого-либо представленного материала и не желаете, чтобы ссылка на него находилась в нашем каталоге, свяжитесь с нами, и мы незамедлительно удалим ее. Файлы для обмена на трекере предоставлены пользователями сайта, и администрация не несет ответственности за их содержание. Просьба не заливать файлы, защищенные авторскими правами, а также файлы нелегального содержания!