[ Сегодня идет свободное скачивание без начисления Download ]


Статистика раздачи
Нет
 
   
 
Top  
 
 
Fallen / Падший«Чему быть, того не миновать» Год выпуска: 1998
Страна: США
Производство: Atlas Entertainment, Turner Pictures (I)
Жанр: триллер, драма, криминал

Режиссер: Грегори Хоблит / Gregory Hoblit
В ролях:
Дензел Вашингтон (John Hobbes), Джон Гудмен (Jonesy), Дональд Сазерленд (Lt. Stanton), Эмбет Дэвидц (Gretta Milano), Джеймс Гандольфини (Lou), Элиас Котеас (Edgar Reese), Гэбриел Коссес (Art), Майкл Дж. Паган (Sam), Роберт Джой (Charles), Фрэнк Медрано (Charles' Killer), Ронн Манро (Mini Golf Owner), Синтия Хейден (Society Woman)
Дублёры: Владимир Вихров (John Hobbes), Борис Быстров (Jonesy), Рудольф Панков (Lt. Stanton), Ольга Голованова (Gretta Milano), Александр Новиков (Lou), Владимир Конкин (Edgar Reese), Вячеслав Баранов (Art), Ольга Кузнецова, Юрий Саранцев (Schoolteacher)

Перевод: Оригинал
Профессиональный (двухголосый, закадровый)
Профессиональный (полное дублирование)
Авторский (одноголосый закадровый) {Живов Юрий}

Субтитры: русские, английские, английские (SDH),

Описание: В городской тюрьме казнен по приговору суда опасный преступник, маньяк - убийца. С этого момента в городе происходят одно за другим загадочные убийства, притом, судя по телам жертв, убийства ритуального характера.
Полицейский детектив Хоббс, присутствовавший при казни маньяка, берется за расследование серии этих преступлений и, для начала, выясняет, как зовут того, кто их совершил. Установив его имя, сыщик приходит к страшному выводу: эти злодеяния - не человеческих рук дело, а демона - убийцы, вырвавшегося в наш мир...
Качество: BDRip 720p
Продолжительность: 02:04:11
Формат: MKV
Видео кодек: AVC
Аудио кодек: AC3, DTS
Видео: 1280x534 (2.40:1), 23,976 fps, AVC High@L4.1 ~6429 kbps avg, 0,392 bit/pixel
Аудио №1: русский; 48 kHz, AC3, 5.1 ch, (Front: L C R, Side: L R, LFE) ~384 kbps avg - |Дубляж, R5|
Аудио №2: русский; 48 kHz, DTS, 5.1 ch, (Front: L C R, Side: L R, LFE) ~1510 kbps avg - |Профессиональный, Двухголосый, закадровый|
Аудио №3: русский; 48 kHz, DTS, 5.1 ch, (Front: L C R, Side: L R, LFE) ~1510 kbps avg - |Авторский, одноголосый Ю. Живов|
Аудио №4: русский; 48 kHz, DTS, 5.1 ch, (Front: L C R, Side: L R, LFE) ~1510 kbps avg - |Оригинал|
Аудио №5: английский; 48 kHz, AC3, 2.0 ch, (Front: L R) ~192 kbps avg - |Комментарии|


Сборы в США: $25 232 289
Мировая премьера: 16 января 1998
Релиз на DVD: 16 сентября 2008, «Юниверсал Пикчерс Рус»


Релиз от:
Знаете ли вы, что...
  • В картине демон Азазел постоянно напевает две песенки из репертуара группы «The Rolling Stones» - «Время на моей стороне» (Time is on my side) и «Сочувствие к дьяволу» (Sympathy for the Devil).
Media Info
General
Unique ID                                : 214205848334635478425397412326432034971 (0xA1268BB6BBFCB7D4B1844359611BD09B)
Complete name                            : D:\HD Фильмы\Fallen.1998.720p.BluRay.3xRus.2xEng.HDCLUB.mkv
Format                                   : Matroska
Format version                           : Version 2
File size                                : 10.2 GiB
Duration                                 : 2h 4mn
Overall bit rate                         : 11.8 Mbps
Movie name                               : Fallen.1998.720p.BluRay.DTS.x264-CtrlHD
Encoded date                             : UTC 2012-08-29 16:20:01
Writing application                      : mkvmerge v3.4.0 ('Rapunzel') сборка от May 15 2010 09:38:20
Writing library                          : libebml v0.8.0 + libmatroska v0.9.0
Video
ID                                       : 1
Format                                   : AVC
Format/Info                              : Advanced Video Codec
Format profile                           : High@L4.1
Format settings, CABAC                   : Yes
Format settings, ReFrames                : 12 frames
Codec ID                                 : V_MPEG4/ISO/AVC
Duration                                 : 2h 4mn
Bit rate                                 : 6 429 Kbps
Width                                    : 1 280 pixels
Height                                   : 534 pixels
Display aspect ratio                     : 2.40:1
Frame rate                               : 23.976 fps
Color space                              : YUV
Chroma subsampling                       : 4:2:0
Bit depth                                : 8 bits
Scan type                                : Progressive
Bits/(Pixel*Frame)                       : 0.392
Stream size                              : 5.58 GiB (55%)
Writing library                          : x264 core 125 r2208kMod d9d2288
Encoding settings                        : cabac=1 / ref=12 / deblock=1:-3:-3 / analyse=0x3:0x113 / me=umh / subme=11 / psy=1 / fade_compensate=0.00 / psy_rd=1.10:0.00 / mixed_ref=1 / me_range=16 / chroma_me=1 / trellis=2 / 8x8dct=1 / cqm=0 / deadzone=21,11 / fast_pskip=0 / chroma_qp_offset=-2 / threads=6 / lookahead_threads=1 / sliced_threads=0 / nr=0 / decimate=0 / interlaced=0 / bluray_compat=0 / constrained_intra=0 / bframes=8 / b_pyramid=2 / b_adapt=2 / b_bias=0 / direct=3 / weightb=1 / open_gop=0 / weightp=2 / keyint=250 / keyint_min=23 / scenecut=40 / intra_refresh=0 / rc=crf / mbtree=0 / crf=16.5000 / qcomp=0.80 / qpmin=0 / qpmax=69 / qpstep=4 / ip_ratio=1.30 / pb_ratio=1.20 / aq=1:0.80
Language                                 : English
Default                                  : No
Forced                                   : No
Audio #1
ID                                       : 2
Format                                   : AC-3
Format/Info                              : Audio Coding 3
Mode extension                           : CM (complete main)
Codec ID                                 : A_AC3
Duration                                 : 2h 4mn
Bit rate mode                            : Constant
Bit rate                                 : 384 Kbps
Channel(s)                               : 6 channels
Channel positions                        : Front: L C R, Side: L R, LFE
Sampling rate                            : 48.0 KHz
Bit depth                                : 16 bits
Compression mode                         : Lossy
Stream size                              : 341 MiB (3%)
Title                                    : AC3 5.1 @ 384 kbps - Дубляж
Language                                 : Russian
Default                                  : Yes
Forced                                   : No
Audio #2
ID                                       : 3
Format                                   : DTS
Format/Info                              : Digital Theater Systems
Codec ID                                 : A_DTS
Duration                                 : 2h 4mn
Bit rate mode                            : Constant
Bit rate                                 : 1 510 Kbps
Channel(s)                               : 6 channels
Channel positions                        : Front: L C R, Side: L R, LFE
Sampling rate                            : 48.0 KHz
Bit depth                                : 24 bits
Compression mode                         : Lossy
Stream size                              : 1.31 GiB (13%)
Title                                    : DTS 5.1 @ 1536 kbps - Двухголосый закадровый
Language                                 : Russian
Default                                  : No
Forced                                   : No
Audio #3
ID                                       : 4
Format                                   : DTS
Format/Info                              : Digital Theater Systems
Codec ID                                 : A_DTS
Duration                                 : 2h 4mn
Bit rate mode                            : Constant
Bit rate                                 : 1 510 Kbps
Channel(s)                               : 6 channels
Channel positions                        : Front: L C R, Side: L R, LFE
Sampling rate                            : 48.0 KHz
Bit depth                                : 24 bits
Compression mode                         : Lossy
Stream size                              : 1.31 GiB (13%)
Title                                    : DTS 5.1 @ 1536 kbps - Одноголосый закадровый, Ю. Живов
Language                                 : Russian
Default                                  : No
Forced                                   : No
Audio #4
ID                                       : 5
Format                                   : DTS
Format/Info                              : Digital Theater Systems
Codec ID                                 : A_DTS
Duration                                 : 2h 4mn
Bit rate mode                            : Constant
Bit rate                                 : 1 510 Kbps
Channel(s)                               : 6 channels
Channel positions                        : Front: L C R, Side: L R, LFE
Sampling rate                            : 48.0 KHz
Bit depth                                : 24 bits
Compression mode                         : Lossy
Delay relative to video                  : 11ms
Stream size                              : 1.31 GiB (13%)
Language                                 : English
Default                                  : No
Forced                                   : No
Audio #5
ID                                       : 6
Format                                   : AC-3
Format/Info                              : Audio Coding 3
Format profile                           : Dolby Digital
Mode extension                           : CM (complete main)
Codec ID                                 : A_AC3
Duration                                 : 2h 4mn
Bit rate mode                            : Constant
Bit rate                                 : 192 Kbps
Channel(s)                               : 2 channels
Channel positions                        : Front: L R
Sampling rate                            : 48.0 KHz
Bit depth                                : 16 bits
Compression mode                         : Lossy
Stream size                              : 171 MiB (2%)
Title                                    : Commentary
Language                                 : English
Default                                  : No
Forced                                   : No
Text #1
ID                                       : 7
Format                                   : UTF-8
Codec ID                                 : S_TEXT/UTF8
Codec ID/Info                            : UTF-8 Plain Text
Language                                 : Russian
Default                                  : No
Forced                                   : No
Text #2
ID                                       : 8
Format                                   : UTF-8
Codec ID                                 : S_TEXT/UTF8
Codec ID/Info                            : UTF-8 Plain Text
Language                                 : English
Default                                  : No
Forced                                   : No
Text #3
ID                                       : 9
Format                                   : UTF-8
Codec ID                                 : S_TEXT/UTF8
Codec ID/Info                            : UTF-8 Plain Text
Title                                    : SDH
Language                                 : English
Default                                  : No
Forced                                   : No
Menu
00:00:00.000                             : en:Chapter 1
00:02:24.853                             : en:Chapter 2
00:05:08.266                             : en:Chapter 3
00:09:23.563                             : en:Chapter 4
00:14:36.125                             : en:Chapter 5
00:16:55.014                             : en:Chapter 6
00:19:53.067                             : en:Chapter 7
00:23:04.883                             : en:Chapter 8
00:26:22.206                             : en:Chapter 9
00:31:11.995                             : en:Chapter 10
00:36:02.077                             : en:Chapter 11
00:40:32.847                             : en:Chapter 12
00:43:42.620                             : en:Chapter 13
00:49:28.799                             : en:Chapter 14
00:55:18.732                             : en:Chapter 15
01:02:09.768                             : en:Chapter 16
01:06:42.040                             : en:Chapter 17
01:10:30.184                             : en:Chapter 18
01:12:46.237                             : en:Chapter 19
01:17:04.370                             : en:Chapter 20
01:19:39.483                             : en:Chapter 21
01:21:45.067                             : en:Chapter 22
01:27:18.567                             : en:Chapter 23
01:33:15.548                             : en:Chapter 24
01:37:33.056                             : en:Chapter 25
01:39:37.430                             : en:Chapter 26
01:44:43.360                             : en:Chapter 27
01:47:05.377                             : en:Chapter 28
01:52:25.489                             : en:Chapter 29
01:55:01.269                             : en:Chapter 30
01:58:58.381                             : en:Chapter 31
02:00:35.770                             : en:Chapter 32

[th]http://torrentsclub.org/pictures/e0cb84da863655a422...ad4bba8.png[/th] [th]http://torrentsclub.org/pictures/040c2caded0c9da40e...60f680d.png[/th] [th]http://torrentsclub.org/pictures/3faf0c0855e0d6cefb...7f3a1bc.png[/th]

[Цитировать]



Показать сообщения:    

Текущее время: 08-Дек 12:57

Часовой пояс: UTC + 3


Вы не можете начинать темы
Вы не можете отвечать на сообщения
Вы не можете редактировать свои сообщения
Вы не можете удалять свои сообщения
Вы не можете голосовать в опросах
Вы не можете прикреплять файлы к сообщениям
Вы не можете скачивать файлы

!ВНИМАНИЕ!
Сайт не предоставляет электронные версии произведений, а занимается лишь коллекционированием и каталогизацией ссылок, присылаемых и публикуемых на форуме нашими читателями. Если вы являетесь правообладателем какого-либо представленного материала и не желаете, чтобы ссылка на него находилась в нашем каталоге, свяжитесь с нами, и мы незамедлительно удалим ее. Файлы для обмена на трекере предоставлены пользователями сайта, и администрация не несет ответственности за их содержание. Просьба не заливать файлы, защищенные авторскими правами, а также файлы нелегального содержания!