[ Сегодня идет свободное скачивание без начисления Download ]


Статистика раздачи
Нет
 
   
 
Top  
 
 
Titanic / Титаник«Ничто на Земле не сможет разлучить их» Год выпуска: 1997
Страна: США
Производство: Twentieth Century Fox Film Corporation, Paramount Pictures, Lightstorm Entertainment
Жанр: драма, мелодрама

Режиссер: Джеймс Кэмерон / James Cameron
В ролях:
Леонардо ДиКаприо (Jack Dawson), Кейт Уинслет (Rose DeWitt Bukater), Билли Зейн (Caledon 'Cal' Hockley), Кэти Бейтс (Molly Brown), Фрэнсис Фишер (Ruth Dewitt Bukater), Глория Стюарт (Old Rose), Билл Пэкстон (Brock Lovett), Бернард Хилл (Captain Edward James Smith), Дэвид Уорнер (Spicer Lovejoy), Виктор Гарбер (Thomas Andrews), Джонатан Хайд (Bruce Ismay), Сьюзи Эймис (Lizzy Calvert)
Дублёры: Олег Куликович (Jack Dawson), Александр Майоров (Jack Dawson (дубляж 2012 года)), Татьяна Иванова (Rose DeWitt Bukater; Molly Brown (дубляж 2012 года)), Варвара Чабан (Rose DeWitt Bukater (дубляж 2012 года)), Станислав Концевич (Caledon 'Cal' Hockley), Елена Ставрогина (Molly Brown), Галина Чигинская (Ruth Dewitt Bukater), Борис Тетерин, Михаил Черняк, Людмила Ксенофонтова (Old Rose), Вадим Гущин (Brock Lovett), Анатолий Азо (Captain Edward James Smith)
Перевод:
*Новый дубляж 2012 (Rus, Ukr)
*Профессиональный (полное дублирование)
*Профессиональный (многоголосый, закадровый)
*Профессиональный (двухголосый, закадровый)
*Авторский (одноголосый, закадровый)
*Оригинал
Субтитры: Русские, английские

Описание: Молодые влюбленные Джек и Роза находят друг друга в первом и последнем плавании «непотопляемого» Титаника. Они не могли знать, что шикарный лайнер столкнется с айсбергом в холодных водах Северной Атлантики, и их страстная любовь превратится в схватку со смертью... Качество: BDrip 720p
Продолжительность: 03:14:49
Формат: mkv
Видео кодек: AVC
Аудио кодек: AC3, DTS
Видео: 1280х720 (1.78:1), 23,976 fps, AVC [email protected] ~7802 kbps avg, 0,353 bit/pixel
Аудио #1: Russian; 48 kHz, DTS, 5.1 ch, (Front: L C R, Side: L R, LFE) ~768 kbps avg - |Дубляж, BluRay EUR 2012|
Аудио #2: Ukrainian; 48 kHz, DTS, 5.1 ch, (Front: L C R, Side: L R, LFE) ~768 kbps avg - |Дубляж, BluRay EUR 2012|
Аудио #3: Russian; 48 kHz, AC3, 5.1 ch, (Front: L C R, Side: L R, LFE) ~448 kbps avg - |Дубляж, с ДВД лицензии R5 1997|
Аудио #4: Ukrainian; 48 kHz, AC3, 5.1 ch, (Front: L C R, Side: L R, LFE) ~384 kbps avg - |Многоголосый, с ДВД от "Киномания"|
Аудио #5: Russian; 48 kHz, DTS, 5.1 ch, (Front: L C R, Side: L R, LFE) ~768 kbps avg - |Авторский, А.Гаврилов|
Аудио #6: Russian; 48 kHz, DTS, 5.1 ch, (Front: L C R, Side: L R, LFE) ~1510 kbps avg - |Профессинальный двухголосый, Гланц и Королёва|
Аудио #7: English; 48 kHz, DTS, 5.1 ch, (Front: L C R, Side: L R, LFE) ~1510 kbps avg - |Оригинал|

Бюджет: $200 000 000
Сборы в США: $658 672 302
Сборы в России: $18 400 000
Сборы в мире: $2 183 672 302
Мировая премьера: 1 ноября 1997
Премьера (РФ): 20 февраля 1998, «Двадцатый Век Фокс СНГ»
Релиз на DVD: 30 октября 2008, «Двадцатый Век Фокс СНГ»
Релиз на Blu Ray: 13 сентября 2012, «Двадцатый Век Фокс СНГ»

Сравнение кадра:
2.35:1>>>>>>>>>>>>>>>>>>>>>>>>>>>>>>>>>>>1.78:1

[th]http://torrentsclub.org/pictures/a4cd3fefa5ea4eaf83...90810e9.png[/th] [th]http://torrentsclub.org/pictures/61d76d51f48f5c26b9...e4a0cc2.png[/th]
Релиз от:
Знаете ли вы, что...
  • Создание трехмерной версии «Титаника» обошлось в $18 млн. и потребовало 60 недель - это дольше, чем шли съемки фильма.
Media Info
x264 [info]: frame I:2180 Avg QP:15.21 size:164453
x264 [info]: frame P:65662 Avg QP:17.92 size: 69538
x264 [info]: frame B:212550 Avg QP:19.59 size: 30477
Format                                   : Matroska
Format version                           : Version 2
File size                                : 18.5 GiB
Duration                                 : 3h 14mn
Overall bit rate                         : 13.6 Mbps
Movie name                               : =BLUEBIRD=
Encoded date                             : UTC 2012-09-07 13:05:42
Writing application                      : mkvmerge v5.7.0 ('The Whirlwind') built on Jul  8 2012 20:08:51
Writing library                          : libebml v1.2.3 + libmatroska v1.3.0
Video
ID                                       : 1
Format                                   : AVC
Format/Info                              : Advanced Video Codec
Format profile                           : [email protected]
Format settings, CABAC                   : Yes
Format settings, ReFrames                : 9 frames
Codec ID                                 : V_MPEG4/ISO/AVC
Duration                                 : 3h 14mn
Bit rate                                 : 7 802 Kbps
Width                                    : 1 280 pixels
Height                                   : 720 pixels
Display aspect ratio                     : 16:9
Frame rate                               : 23.976 fps
Color space                              : YUV
Chroma subsampling                       : 4:2:0
Bit depth                                : 8 bits
Scan type                                : Progressive
Bits/(Pixel*Frame)                       : 0.353
Stream size                              : 10.3 GiB (55%)
Writing library                          : x264 core 125 r2200 999b753
Encoding settings                        : cabac=1 / ref=9 / deblock=1:-3:-2 / analyse=0x3:0x133 / me=umh / subme=9 / psy=1 / psy_rd=1.05:0.20 / mixed_ref=1 / me_range=24 / chroma_me=1 / trellis=2 / 8x8dct=1 / cqm=0 / deadzone=21,11 / fast_pskip=0 / chroma_qp_offset=-3 / threads=12 / lookahead_threads=2 / sliced_threads=0 / nr=0 / decimate=1 / interlaced=0 / bluray_compat=0 / constrained_intra=0 / bframes=6 / b_pyramid=2 / b_adapt=2 / b_bias=0 / direct=3 / weightb=1 / open_gop=0 / weightp=2 / keyint=240 / keyint_min=23 / scenecut=40 / intra_refresh=0 / rc_lookahead=90 / rc=2pass / mbtree=1 / bitrate=7802 / ratetol=1.0 / qcomp=0.65 / qpmin=0 / qpmax=69 / qpstep=4 / cplxblur=20.0 / qblur=0.5 / ip_ratio=1.40 / aq=1:0.70
Language                                 : English
Default                                  : Yes
Forced                                   : No
Audio #1
ID                                       : 2
Format                                   : DTS
Format/Info                              : Digital Theater Systems
Codec ID                                 : A_DTS
Duration                                 : 3h 14mn
Bit rate mode                            : Constant
Bit rate                                 : 755 Kbps
Channel(s)                               : 6 channels
Channel positions                        : Front: L C R, Side: L R, LFE
Sampling rate                            : 48.0 KHz
Bit depth                                : 24 bits
Compression mode                         : Lossy
Stream size                              : 1.03 GiB (6%)
Title                                    : Дубляж 2012
Language                                 : Russian
Default                                  : Yes
Forced                                   : No
Audio #2
ID                                       : 3
Format                                   : AC-3
Format/Info                              : Audio Coding 3
Mode extension                           : CM (complete main)
Format settings, Endianness              : Big
Codec ID                                 : A_AC3
Duration                                 : 3h 14mn
Bit rate mode                            : Constant
Bit rate                                 : 448 Kbps
Channel(s)                               : 6 channels
Channel positions                        : Front: L C R, Side: L R, LFE
Sampling rate                            : 48.0 KHz
Bit depth                                : 16 bits
Compression mode                         : Lossy
Stream size                              : 625 MiB (3%)
Title                                    : DUB
Language                                 : Ukrainian
Default                                  : No
Forced                                   : No
Audio #3
ID                                       : 4
Format                                   : AC-3
Format/Info                              : Audio Coding 3
Mode extension                           : CM (complete main)
Format settings, Endianness              : Big
Codec ID                                 : A_AC3
Duration                                 : 3h 14mn
Bit rate mode                            : Constant
Bit rate                                 : 448 Kbps
Channel(s)                               : 6 channels
Channel positions                        : Front: L C R, Side: L R, LFE
Sampling rate                            : 48.0 KHz
Bit depth                                : 16 bits
Compression mode                         : Lossy
Stream size                              : 625 MiB (3%)
Title                                    : Дубляж 1997
Language                                 : Russian
Default                                  : No
Forced                                   : Yes
Audio #4
ID                                       : 5
Format                                   : AC-3
Format/Info                              : Audio Coding 3
Mode extension                           : CM (complete main)
Format settings, Endianness              : Big
Codec ID                                 : A_AC3
Duration                                 : 3h 14mn
Bit rate mode                            : Constant
Bit rate                                 : 384 Kbps
Channel(s)                               : 6 channels
Channel positions                        : Front: L C R, Side: L R, LFE
Sampling rate                            : 48.0 KHz
Bit depth                                : 16 bits
Compression mode                         : Lossy
Stream size                              : 535 MiB (3%)
Title                                    : Многоголосый
Language                                 : Russian
Default                                  : No
Forced                                   : No
Audio #5
ID                                       : 6
Format                                   : DTS
Format/Info                              : Digital Theater Systems
Codec ID                                 : A_DTS
Duration                                 : 3h 14mn
Bit rate mode                            : Constant
Bit rate                                 : 755 Kbps
Channel(s)                               : 6 channels
Channel positions                        : Front: L C R, Side: L R, LFE
Sampling rate                            : 48.0 KHz
Bit depth                                : 24 bits
Compression mode                         : Lossy
Stream size                              : 1.03 GiB (6%)
Title                                    : А.Гаврилов
Language                                 : Russian
Default                                  : No
Forced                                   : No
Audio #6
ID                                       : 7
Format                                   : DTS
Format/Info                              : Digital Theater Systems
Codec ID                                 : A_DTS
Duration                                 : 3h 14mn
Bit rate mode                            : Constant
Bit rate                                 : 1 510 Kbps
Channel(s)                               : 6 channels
Channel positions                        : Front: L C R, Side: L R, LFE
Sampling rate                            : 48.0 KHz
Bit depth                                : 24 bits
Compression mode                         : Lossy
Stream size                              : 2.06 GiB (11%)
Title                                    : Глац и Королёва
Language                                 : Russian
Default                                  : No
Forced                                   : No
Audio #7
ID                                       : 8
Format                                   : DTS
Format/Info                              : Digital Theater Systems
Codec ID                                 : A_DTS
Duration                                 : 3h 14mn
Bit rate mode                            : Constant
Bit rate                                 : 1 510 Kbps
Channel(s)                               : 6 channels
Channel positions                        : Front: L C R, Side: L R, LFE
Sampling rate                            : 48.0 KHz
Bit depth                                : 24 bits
Compression mode                         : Lossy
Stream size                              : 2.06 GiB (11%)
Language                                 : English
Default                                  : No
Forced                                   : No
Text #1
ID                                       : 9
Format                                   : UTF-8
Codec ID                                 : S_TEXT/UTF8
Codec ID/Info                            : UTF-8 Plain Text
Language                                 : Russian
Default                                  : No
Forced                                   : No
Text #2
ID                                       : 10
Format                                   : UTF-8
Codec ID                                 : S_TEXT/UTF8
Codec ID/Info                            : UTF-8 Plain Text
Language                                 : English
Default                                  : No
Forced                                   : No
Menu
00:00:00.000                             : en:00:00:00.000
00:01:24.376                             : en:00:01:24.376
00:04:39.988                             : en:00:04:39.988
00:08:26.131                             : en:00:08:26.131
00:10:46.771                             : en:00:10:46.771
00:12:52.647                             : en:00:12:52.647
00:16:52.428                             : en:00:16:52.428
00:20:07.748                             : en:00:20:07.748
00:23:38.876                             : en:00:23:38.876
00:26:26.543                             : en:00:26:26.543
00:29:03.366                             : en:00:29:03.366
00:29:37.526                             : en:00:29:37.526
00:34:59.931                             : en:00:34:59.931
00:36:48.623                             : en:00:36:48.623
00:42:59.160                             : en:00:42:59.160
00:45:26.098                             : en:00:45:26.098
00:47:11.620                             : en:00:47:11.620
00:53:33.043                             : en:00:53:33.043
00:56:47.988                             : en:00:56:47.988
01:05:32.053                             : en:01:05:32.053
01:10:19.965                             : en:01:10:19.965
01:14:06.358                             : en:01:14:06.358
01:16:10.691                             : en:01:16:10.691
01:19:59.044                             : en:01:19:59.044
01:22:50.507                             : en:01:22:50.507
01:23:40.056                             : en:01:23:40.056
01:28:21.629                             : en:01:28:21.629
01:29:19.854                             : en:01:29:19.854
01:32:52.275                             : en:01:32:52.275
01:36:59.104                             : en:01:36:59.104
01:44:41.149                             : en:01:44:41.149
01:46:21.041                             : en:01:46:21.041
01:47:58.847                             : en:01:47:58.847
01:50:11.104                             : en:01:50:11.104
01:52:21.401                             : en:01:52:21.401
01:53:54.327                             : en:01:53:54.327
01:55:21.831                             : en:01:55:21.831
01:56:10.880                             : en:01:56:10.880
01:57:53.232                             : en:01:57:53.232
02:06:38.340                             : en:02:06:38.340
02:08:49.972                             : en:02:08:49.972
02:11:22.082                             : en:02:11:22.082
02:15:42.550                             : en:02:15:42.550
02:19:43.458                             : en:02:19:43.458
02:21:24.559                             : en:02:21:24.559
02:25:28.761                             : en:02:25:28.761
02:27:28.422                             : en:02:27:28.422
02:29:07.271                             : en:02:29:07.271
02:29:56.695                             : en:02:29:56.695
02:33:31.535                             : en:02:33:31.535
02:36:52.360                             : en:02:36:52.360
02:38:33.878                             : en:02:38:33.878
02:40:34.666                             : en:02:40:34.666
02:45:00.640                             : en:02:45:00.640
02:47:48.808                             : en:02:47:48.808
02:49:22.526                             : en:02:49:22.526
02:52:09.610                             : en:02:52:09.610
02:53:41.327                             : en:02:53:41.327
02:57:53.495                             : en:02:57:53.495
02:59:35.305                             : en:02:59:35.305
03:01:29.252                             : en:03:01:29.252
03:03:13.648                             : en:03:03:13.648
03:04:57.877                             : en:03:04:57.877
03:07:19.644                             : en:03:07:19.644
-[th]http://torrentsclub.org/pictures/cfc6bd2fb2dcae691f...f1cc382.png[/th] [th]http://torrentsclub.org/pictures/e6eae1f0ad35ba0bd8...5a9048c.png[/th] [th]http://torrentsclub.org/pictures/7021254f28e5d6fb3c...d8eddd0.png[/th]

[Цитировать]



Показать сообщения:    

Текущее время: 05-Дек 01:29

Часовой пояс: UTC + 3


Вы не можете начинать темы
Вы не можете отвечать на сообщения
Вы не можете редактировать свои сообщения
Вы не можете удалять свои сообщения
Вы не можете голосовать в опросах
Вы не можете прикреплять файлы к сообщениям
Вы не можете скачивать файлы

!ВНИМАНИЕ!
Сайт не предоставляет электронные версии произведений, а занимается лишь коллекционированием и каталогизацией ссылок, присылаемых и публикуемых на форуме нашими читателями. Если вы являетесь правообладателем какого-либо представленного материала и не желаете, чтобы ссылка на него находилась в нашем каталоге, свяжитесь с нами, и мы незамедлительно удалим ее. Файлы для обмена на трекере предоставлены пользователями сайта, и администрация не несет ответственности за их содержание. Просьба не заливать файлы, защищенные авторскими правами, а также файлы нелегального содержания!