[ Сегодня идет свободное скачивание без начисления Download ]


Статистика раздачи
Нет
 
   
 
Top  
 
 
- Футбол. Лига Чемпионов 2012/13. Шахтер (Украина) - Боруссия Д. (Германия) 1/8 финала (13.02.2013) [1080i] HDTV - Название: Футбол. Лига Чемпионов 2012/13. Шахтер (Украина) - Боруссия Д. (Германия) 1/8 финала
Год выпуска: 13.02.2013
Жанр: Спорт
Продолжительность: 01:02:51 + 00:53:50
Язык комментариев: Русский ( НТВ+, Владислав Батурин)
Качество: HDTV (1080i)
Видео: MPEG-4 AVC, 12,5 Мбит/сек, 1920x1080, 25 кадр/с
Аудио: Русский, MPEG-2, 2 канала, 192 Кбит/с

Первый тайм

Общее
Идентификатор : 20 (0x14)
Полное имя : D:\Фильмы\Лига Чемпионов 2012-13 1I8 финала Первый матч Шахтер (Украина) - Боруссия Д. (Германия) Футбол 2 HD\1-й тайм.ts
Формат : MPEG-TS
Размер файла : 5,84 Гбайт
Продолжительность : 1 ч. 2 м.
Режим общего битрейта : Переменный
Общий поток : 13,3 Мбит/сек
Видео
Идентификатор : 301 (0x12D)
Идентификатор меню : 20101 (0x4E85)
Формат : AVC
Формат/Информация : Advanced Video Codec
Профиль формата : High@L4.0
Параметр CABAC формата : Да
Параметр ReFrames формата : 3 кадра
Идентификатор кодека : 27
Продолжительность : 1 ч. 2 м.
Битрейт : 12,5 Мбит/сек
Ширина : 1920 пикселей
Высота : 1080 пикселей
Соотношение сторон : 16:9
Частота кадров : 25,000 кадров/сек
Стандарт вещания : Component
Цветовое пространство : YUV
Субдискретизация насыщенности : 4:2:0
Битовая глубина : 8 бит
Тип развёртки : Чересстрочная
Порядок развёртки : Верхнее поле первое
Бит/(Пиксели*Кадры) : 0.240
Размер потока : 5,47 Гбайт (94%)
Основные цвета : BT.709
Характеристики трансфера : BT.709
Коэффициенты матрицы : BT.709
Аудио
Идентификатор : 401 (0x191)
Идентификатор меню : 20101 (0x4E85)
Формат : MPEG Audio
Версия формата : Version 1
Профиль формата : Layer 2
Идентификатор кодека : 4
Продолжительность : 1 ч. 2 м.
Вид битрейта : Постоянный
Битрейт : 192 Кбит/сек
Каналы : 2 канала
Частота : 48,0 КГц
Метод сжатия : С потерями
Задержка видео : 48 мс.
Размер потока : 86,3 Мбайт (1%)
Язык : Russian
Язык, дополнительно : Clean effects

Второй тайм

Общее
Идентификатор : 20 (0x14)
Полное имя : D:\Фильмы\Лига Чемпионов 2012-13 1I8 финала Первый матч Шахтер (Украина) - Боруссия Д. (Германия) Футбол 2 HD\2-й тайм.ts
Формат : MPEG-TS
Размер файла : 5,01 Гбайт
Продолжительность : 53 м.
Режим общего битрейта : Переменный
Общий поток : 13,3 Мбит/сек
Видео
Идентификатор : 301 (0x12D)
Идентификатор меню : 20101 (0x4E85)
Формат : AVC
Формат/Информация : Advanced Video Codec
Профиль формата : High@L4.0
Параметр CABAC формата : Да
Параметр ReFrames формата : 3 кадра
Идентификатор кодека : 27
Продолжительность : 53 м.
Битрейт : 12,5 Мбит/сек
Ширина : 1920 пикселей
Высота : 1080 пикселей
Соотношение сторон : 16:9
Частота кадров : 25,000 кадров/сек
Стандарт вещания : Component
Цветовое пространство : YUV
Субдискретизация насыщенности : 4:2:0
Битовая глубина : 8 бит
Тип развёртки : Чересстрочная
Порядок развёртки : Верхнее поле первое
Бит/(Пиксели*Кадры) : 0.241
Размер потока : 4,69 Гбайт (94%)
Основные цвета : BT.709
Характеристики трансфера : BT.709
Коэффициенты матрицы : BT.709
Аудио
Идентификатор : 401 (0x191)
Идентификатор меню : 20101 (0x4E85)
Формат : MPEG Audio
Версия формата : Version 1
Профиль формата : Layer 2
Идентификатор кодека : 4
Продолжительность : 53 м.
Вид битрейта : Постоянный
Битрейт : 192 Кбит/сек
Каналы : 2 канала
Частота : 48,0 КГц
Метод сжатия : С потерями
Задержка видео : 80 мс.
Размер потока : 73,9 Мбайт (1%)
Язык : Russian
Язык, дополнительно : Clean effects

Составы

Результат

Шахтер (Украина) - Боруссия Д. (Германия) 2-2
Скриншоты:
Время раздачи: 24/7

[Цитировать]



Показать сообщения:    

Текущее время: 08-Дек 12:44

Часовой пояс: UTC + 3


Вы не можете начинать темы
Вы не можете отвечать на сообщения
Вы не можете редактировать свои сообщения
Вы не можете удалять свои сообщения
Вы не можете голосовать в опросах
Вы не можете прикреплять файлы к сообщениям
Вы не можете скачивать файлы

!ВНИМАНИЕ!
Сайт не предоставляет электронные версии произведений, а занимается лишь коллекционированием и каталогизацией ссылок, присылаемых и публикуемых на форуме нашими читателями. Если вы являетесь правообладателем какого-либо представленного материала и не желаете, чтобы ссылка на него находилась в нашем каталоге, свяжитесь с нами, и мы незамедлительно удалим ее. Файлы для обмена на трекере предоставлены пользователями сайта, и администрация не несет ответственности за их содержание. Просьба не заливать файлы, защищенные авторскими правами, а также файлы нелегального содержания!