[ Сегодня идет свободное скачивание без начисления Download ]


Статистика раздачи
Нет
 
   
 
Top  
 
 
- Футбол. Лига Чемпионов 2012/13. Реал (Испания) - Манчестер Ю. (Англия) 1/8 финала (13.02.2013) [1080i] HDTV - Название: Футбол. Лига Чемпионов 2012/13. Реал (Испания) - Манчестер Ю. (Англия) 1/8 финала
Год выпуска: 13.02.2013
Жанр: Спорт
Продолжительность: 00:57:05 + 00:52:37
Язык комментариев: Русский ( НТВ+, Александр Шмурнов)
Качество: HDTV (1080i)
Видео: MPEG-4 AVC, 13,8-14,1 Мбит/сек, 1920x1080, 25 кадр/с
Аудио: Русский, MPEG-2, 2 канала, 192 Кбит/с

Первый тайм

Общее
Идентификатор : 14 (0xE)
Полное имя : D:\Фильмы\Лига Чемпионов 2012-13 1I8 финала Первый матч Реал (Испания) - Манчестер Ю. (Англия) Футбол HD\1-й тайм.ts
Формат : MPEG-TS
Размер файла : 5,86 Гбайт
Продолжительность : 57 м.
Режим общего битрейта : Переменный
Общий поток : 14,7 Мбит/сек
Видео
Идентификатор : 325 (0x145)
Идентификатор меню : 14105 (0x3719)
Формат : AVC
Формат/Информация : Advanced Video Codec
Профиль формата : Main@L4.0
Параметр CABAC формата : Да
Параметр ReFrames формата : 3 кадра
Идентификатор кодека : 27
Продолжительность : 57 м.
Битрейт : 13,8 Мбит/сек
Ширина : 1920 пикселей
Высота : 1080 пикселей
Соотношение сторон : 16:9
Частота кадров : 25,000 кадров/сек
Стандарт вещания : Component
Цветовое пространство : YUV
Субдискретизация насыщенности : 4:2:0
Битовая глубина : 8 бит
Тип развёртки : Чересстрочная
Порядок развёртки : Верхнее поле первое
Бит/(Пиксели*Кадры) : 0.266
Размер потока : 5,49 Гбайт (94%)
Основные цвета : BT.709
Характеристики трансфера : BT.709
Коэффициенты матрицы : BT.709
Аудио
Идентификатор : 405 (0x195)
Идентификатор меню : 14105 (0x3719)
Формат : MPEG Audio
Версия формата : Version 1
Профиль формата : Layer 2
Идентификатор кодека : 4
Продолжительность : 57 м.
Вид битрейта : Постоянный
Битрейт : 192 Кбит/сек
Каналы : 2 канала
Частота : 48,0 КГц
Метод сжатия : С потерями
Задержка видео : 82 мс.
Размер потока : 78,4 Мбайт (1%)
Язык : Russian
Язык, дополнительно : Clean effects

Второй тайм

Общее
Идентификатор : 14 (0xE)
Полное имя : D:\Фильмы\Лига Чемпионов 2012-13 1I8 финала Первый матч Реал (Испания) - Манчестер Ю. (Англия) Футбол HD\2-й тайм.ts
Формат : MPEG-TS
Размер файла : 5,54 Гбайт
Продолжительность : 52 м.
Режим общего битрейта : Переменный
Общий поток : 15,1 Мбит/сек
Видео
Идентификатор : 325 (0x145)
Идентификатор меню : 14105 (0x3719)
Формат : AVC
Формат/Информация : Advanced Video Codec
Профиль формата : Main@L4.0
Параметр CABAC формата : Да
Параметр ReFrames формата : 3 кадра
Идентификатор кодека : 27
Продолжительность : 52 м.
Битрейт : 14,1 Мбит/сек
Ширина : 1920 пикселей
Высота : 1080 пикселей
Соотношение сторон : 16:9
Частота кадров : 25,000 кадров/сек
Стандарт вещания : Component
Цветовое пространство : YUV
Субдискретизация насыщенности : 4:2:0
Битовая глубина : 8 бит
Тип развёртки : Чересстрочная
Порядок развёртки : Верхнее поле первое
Бит/(Пиксели*Кадры) : 0.273
Размер потока : 5,19 Гбайт (94%)
Основные цвета : BT.709
Характеристики трансфера : BT.709
Коэффициенты матрицы : BT.709
Аудио
Идентификатор : 405 (0x195)
Идентификатор меню : 14105 (0x3719)
Формат : MPEG Audio
Версия формата : Version 1
Профиль формата : Layer 2
Идентификатор кодека : 4
Продолжительность : 52 м.
Вид битрейта : Постоянный
Битрейт : 192 Кбит/сек
Каналы : 2 канала
Частота : 48,0 КГц
Метод сжатия : С потерями
Задержка видео : 2 мс.
Размер потока : 72,3 Мбайт (1%)
Язык : Russian
Язык, дополнительно : Clean effects

Составы

Результат

Реал (Испания) - Манчестер Ю. (Англия) 1-1
Скриншоты:
Время раздачи: 24/7

[Цитировать]



Показать сообщения:    

Текущее время: 10-Дек 02:09

Часовой пояс: UTC + 3


Вы не можете начинать темы
Вы не можете отвечать на сообщения
Вы не можете редактировать свои сообщения
Вы не можете удалять свои сообщения
Вы не можете голосовать в опросах
Вы не можете прикреплять файлы к сообщениям
Вы не можете скачивать файлы

!ВНИМАНИЕ!
Сайт не предоставляет электронные версии произведений, а занимается лишь коллекционированием и каталогизацией ссылок, присылаемых и публикуемых на форуме нашими читателями. Если вы являетесь правообладателем какого-либо представленного материала и не желаете, чтобы ссылка на него находилась в нашем каталоге, свяжитесь с нами, и мы незамедлительно удалим ее. Файлы для обмена на трекере предоставлены пользователями сайта, и администрация не несет ответственности за их содержание. Просьба не заливать файлы, защищенные авторскими правами, а также файлы нелегального содержания!