[ Сегодня идет свободное скачивание без начисления Download ]


Статистика раздачи
Нет
 
   
 
Top  
 
 
Доля ангелов / The Angels' Share- Год выхода: 2012
Страна: Великобритания, Франция, Бельгия, Италия
Выпущено: British Film Institute (BFI), Entertainment One
Жанр: Комедия, драма
Продолжительность: 01:41:04
Перевод: Профессиональный (многоголосый закадровый)
Режиссер: Кен Лоуч
В ролях: Пол Брэнниган, Джон Хеншоу, Гари Мейтленд, Жасмин Риггинс, Уильям Руэйн, Роджер Аллам, Шиван Рейли, Чойе Бэй, Пол Бирчард, Джеймс Кэйси, Родерик Кови, Пол Доннелли, Скотт Даймонд, Ник Фарр, Дэвид Гудолл, Дэвид Грэхэм, Финлэй Харрис, Джон Джо Хэй, Барри Хантер, Касуми Китано, Скотт Кайл, Линси Лаури, Лорни МакФадьен, Джой МакЭвой, Элисон Макгиннес, Линси-Энн Моффат, Дэниэл Портман, Джим Суини, Гордон Тейлор, Фернандо Веласкез--Сюжет фильма:
Глазго. Молодой отец семейства Робби хочет навсегда расстаться со своим криминальным прошлым, но у него ничего не получается. В очередном деле Робби удается избежать тюрьмы, но его отправляют на принудительные работы. Ему и его новым товарищам Рино, Альберту и Мо назначают наставника Гарри, который втайне обучает их искусству дегустации виски.
От посещений заводов и сеансов дегустации Робби открывает в себе настоящий талант, вскоре позволяющий ему отличать самые редкие и дорогие сорта. Как поступят Робби и его новые друзья с этим даром? Применят ли они его в очередных преступлениях, мошенничествах, воровстве или используют его, чтобы построить новое многообещающее будущее? Об этом знают только ангелы…
-
-
-Качество: BDRip - AVC
Формат: MKV
Видео кодек: AVC
Аудио кодек: AC-3
Видео: 1280x688, 2904 Кбит/сек, 23,976 кадр/сек, AVC, 0.138 bit/ pixel
Аудио: AC-3, 192 Кбит/сек, 2 ch, 48,0 КГц
-- --

MediaInfo

Общее
Уникальный идентификатор : 194066676513317955179498999911319972223 (0x91FFE1E1B8709D7DA038CC1C57F9A97F)
Полное имя : E:ЗагрузкиThe.Angels'.Share.2012.x264.BDRip.720p.MVO.mkv
Формат : Matroska
Версия формата : Version 2
Размер файла : 2,19 Гбайт
Продолжительность : 1 ч. 41 м.
Общий поток : 3094 Кбит/сек
Дата кодирования : UTC 2012-10-31 15:04:50
Программа кодирования : mkvmerge v5.5.0 ('Healer') built on Apr 6 2012 21:43:24
Библиотека кодирования : libebml v1.2.3 + libmatroska v1.3.0
Видео
Идентификатор : 1
Формат : AVC
Формат/Информация : Advanced Video Codec
Профиль формата : High@L3.1
Параметр CABAC формата : Да
Параметр ReFrames формата : 4 кадра
Идентификатор кодека : V_MPEG4/ISO/AVC
Продолжительность : 1 ч. 41 м.
Битрейт : 2904 Кбит/сек
Ширина : 1280 пикселей
Высота : 688 пикселей
Соотношение сторон : 1,860
Частота кадров : 23,976 кадра/сек
Цветовое пространство : YUV
Субдискретизация насыщенности : 4:2:0
Битовая глубина : 8 бит
Тип развёртки : Прогрессивная
Бит/(Пиксели*Кадры) : 0.138
Размер потока : 2,01 Гбайт (92%)
Заголовок : Доля ангелов
Библиотека кодирования : x264 core 128 r2216 198a7ea
Настройки программы : cabac=1 / ref=4 / deblock=1:0:0 / analyse=0x3:0x133 / me=hex / subme=7 / psy=1 / psy_rd=1.00:0.00 / mixed_ref=1 / me_range=16 / chroma_me=1 / trellis=1 / 8x8dct=1 / cqm=0 / deadzone=21,11 / fast_pskip=1 / chroma_qp_offset=-2 / threads=12 / lookahead_threads=2 / sliced_threads=0 / nr=0 / decimate=1 / interlaced=0 / bluray_compat=0 / constrained_intra=0 / bframes=3 / b_pyramid=2 / b_adapt=1 / b_bias=0 / direct=1 / weightb=1 / open_gop=0 / weightp=2 / keyint=240 / keyint_min=23 / scenecut=40 / intra_refresh=0 / rc_lookahead=40 / rc=2pass / mbtree=1 / bitrate=2904 / ratetol=1.0 / qcomp=0.60 / qpmin=10 / qpmax=51 / qpstep=4 / cplxblur=20.0 / qblur=0.5 / ip_ratio=1.40 / aq=1:1.00
Язык : English
Default : Да
Forced : Нет
Аудио
Идентификатор : 2
Формат : AC-3
Формат/Информация : Audio Coding 3
Расширение режима : CM (complete main)
Идентификатор кодека : A_AC3
Продолжительность : 1 ч. 41 м.
Вид битрейта : Постоянный
Битрейт : 192 Кбит/сек
Каналы : 2 канала
Расположение каналов : Front: L R
Частота : 48,0 КГц
Битовая глубина : 16 бит
Метод сжатия : С потерями
Размер потока : 139 Мбайт (6%)
Заголовок : Профессиональный многоголосный
Язык : Russian
Default : Да
Forced : Нет

[Цитировать]



Показать сообщения:    

Текущее время: 11-Дек 11:05

Часовой пояс: UTC + 3


Вы не можете начинать темы
Вы не можете отвечать на сообщения
Вы не можете редактировать свои сообщения
Вы не можете удалять свои сообщения
Вы не можете голосовать в опросах
Вы не можете прикреплять файлы к сообщениям
Вы не можете скачивать файлы

!ВНИМАНИЕ!
Сайт не предоставляет электронные версии произведений, а занимается лишь коллекционированием и каталогизацией ссылок, присылаемых и публикуемых на форуме нашими читателями. Если вы являетесь правообладателем какого-либо представленного материала и не желаете, чтобы ссылка на него находилась в нашем каталоге, свяжитесь с нами, и мы незамедлительно удалим ее. Файлы для обмена на трекере предоставлены пользователями сайта, и администрация не несет ответственности за их содержание. Просьба не заливать файлы, защищенные авторскими правами, а также файлы нелегального содержания!