[ Сегодня идет свободное скачивание без начисления Download ]


Статистика раздачи
Нет
 
   
 
Top  
 
 
Неудержимые / The Expendables
Страна: США
Жанр: боевик, триллер, приключения
Год выпуска: 2010
Продолжительность: 01:43:28
Перевод#1: Профессиональный (дублированный)
Перевод#2: Профессиональный (дублированный) | RenTV
Перевод#3: Авторский (одноголосый закадровый), А. Гаврилов (отдельно)
Перевод#4: Авторский (одноголосый закадровый), Л. Володарский (отдельно)
Cубтитры: русские, английские
Оригинальная аудиодорожка: английский
Режиссер: Сильвестр Сталлоне
В ролях: Сильвестр Сталлоне, Джейсон Стэйтем, Джет Ли, Жизель Итье, Рэнди Кутюр, Дольф Лундгрен, Терри Крюс, Микки Рурк, Эрик Робертс, Дэвид Зайас
Описание: Отряд профессиональных наёмников и отчаянных парней во главе с Барни Россом получает непростое задание — любой ценой найти и уничтожить кровавого тирана-диктатора, нагнетающего страх на мирное население и сеющего хаос в южноамериканской стране.
Отправляясь на выполнение нелёгкой миссии, закалённые огнём и водой, прошедшие не одну войну, люди Росса попадают в самое пекло. Отныне им придётся выживать: сплотиться и достигнуть цели, либо отчаяться и погибнуть. И всё же эти храбрые, поистине невозмутимые ребята готовы реализовать даже не реализуемое. Но не всё так просто, как кажется на первый взгляд…

Доп. информация: сделано с штатовского трансфера (такого же, как расширенная), который тоже не ахти, но хоть не ядовито-зеленого цвета, за дороги спасибо всем-всем
Исходник: The Expendables 2010 BluRay REMUX 1080p AVC DTS-HD MA 7.1-CHD
Качество видео: BDRip-AVC | sample
Формат видео: MKV
Видео кодек: x264
Видео: AVC 1154x482 (2.40:1), 23.976 fps, ~3380 Kbps, 0.25 bit/pixel
Аудио #1: Russian AC3 6ch 48kHz 448Kbps | Dub
Аудио #2: Russian AC3 2ch 48kHz 192Kbps | Dub RenTV
Аудио #3: English AC3 6ch 48kHz 448Kbps | Original
Аудио #4: Russian AC3 6ch 48kHz 448Kbps | AVO Гаврилов (отдельным файлом)
Аудио #5: Russian AC3 2ch 48kHz 192Kbps | AVO Володарский (отдельным файлом)
Формат субтитров: softsub (SRT)
Главы: есть, подписаны

MediaInfo | x264

x264

--[NoImage] raw [info]: 1154x482p 1:1 @ 24000/1001 fps (cfr)
--[NoImage] x264 [warning]: --ssim used with psy on: results will be invalid!
--[NoImage] x264 [warning]: --tune ssim should be used if attempting to benchmark ssim!
--[NoImage] x264 [info]: using SAR=1/1
--[NoImage] x264 [info]: using cpu capabilities: MMX2 SSE2Fast FastShuffle SSEMisalign LZCNT
--[NoImage] x264 [info]: profile High, level 4.1
--[NoImage] x264 [info]: cabac=1 ref=12 deblock=1:-3:-3 analyse=0x3:0x113 me=umh subme=11 psy=1 fade_compensate=0.00 psy_rd=0.95:0.05 mixed_ref=1 me_range=64 chroma_me=1 trellis=2 8x8dct=1 cqm=0 deadzone=21,11 fast_pskip=1 chroma_qp_offset=-3 threads=6 lookahead_threads=1 sliced_threads=0 nr=0 decimate=1 interlaced=0 bluray_compat=0 constrained_intra=0 bframes=10 b_pyramid=2 b_adapt=2 b_bias=0 direct=1 weightb=1 open_gop=0 weightp=2 keyint=240 keyint_min=23 scenecut=40 intra_refresh=0 rc_lookahead=40 rc=crf mbtree=0 crf=19.0000 qcomp=0.65 qpmin=0 qpmax=69 qpstep=4 vbv_maxrate=50000 vbv_bufsize=62500 crf_max=0.0 nal_hrd=none ip_ratio=1.40 pb_ratio=1.30 aq=3:1.10 zones=137796,148848,q=30
--[NoImage] frames fps kb/s elapsed remain size est.size
--[NoImage] x264 [info]: frame I:1430 Avg QP:15.49 size: 69103
--[NoImage] x264 [info]: frame P:33950 Avg QP:17.16 size: 31938
--[NoImage] x264 [info]: frame B:113469 Avg QP:19.53 size: 12668
--[NoImage] x264 [info]: consecutive B-frames: 3.4% 3.7% 9.2% 14.9% 22.0% 36.2% 5.4% 1.4% 1.3% 1.3% 1.2%
--[NoImage] x264 [info]: mb I I16..4: 10.1% 76.0% 13.9%
--[NoImage] x264 [info]: mb P I16..4: 2.1% 26.6% 2.6% P16..4: 22.5% 27.5% 8.9% 0.0% 0.0% skip: 9.7%
--[NoImage] x264 [info]: mb B I16..4: 0.5% 3.7% 0.5% B16..8: 33.6% 22.5% 3.9% direct: 5.4% skip:29.9% L0:46.1% L1:44.9% BI: 8.9%
--[NoImage] x264 [info]: 8x8 transform intra:82.4% inter:62.5%
--[NoImage] x264 [info]: coded y,uvDC,uvAC intra: 83.8% 84.9% 69.5% inter: 27.8% 23.3% 7.2%
--[NoImage] x264 [info]: i16 v,h,dc,p: 47% 15% 7% 31%
--[NoImage] x264 [info]: i8 v,h,dc,ddl,ddr,vr,hd,vl,hu: 11% 9% 13% 9% 12% 11% 12% 11% 13%
--[NoImage] x264 [info]: i4 v,h,dc,ddl,ddr,vr,hd,vl,hu: 24% 16% 11% 6% 9% 9% 9% 7% 10%
--[NoImage] x264 [info]: i8c dc,h,v,p: 43% 29% 15% 13%
--[NoImage] x264 [info]: Weighted P-Frames: Y:3.9% UV:2.0%
--[NoImage] x264 [info]: ref P L0: 45.6% 7.7% 18.8% 6.9% 5.8% 3.8% 3.5% 1.8% 1.8% 1.4% 1.4% 1.2% 0.3% 0.0%
--[NoImage] x264 [info]: ref B L0: 68.0% 13.6% 6.5% 3.5% 2.4% 2.0% 1.5% 1.0% 0.8% 0.5% 0.2%
--[NoImage] x264 [info]: ref B L1: 91.6% 8.4%
--[NoImage] x264 [info]: SSIM Mean Y:0.9836162 (17.856db)
--[NoImage] x264 [info]: kb/s:3376.91
General
Complete name : E:\...\The.Expendables.2010.Theatrical.US.BDRip.x264.AC3.Rus.Eng-E76.mkv
Format : Matroska
Format version : Version 2
File size : 3.23 GiB
Duration : 1h 43mn
Overall bit rate : 4 467 Kbps
Movie name : The.Expendables.2010.Theatrical.US.BDRip.x264.AC3.Rus.Eng-E76
Encoded date : UTC 2012-11-09 16:10:05
Writing application : mkvmerge v5.6.0 ('Kenya Kane') built on May 27 2012 16:44:04
Writing library : libebml v1.2.3 + libmatroska v1.3.0
Video
ID : 1
Format : AVC
Format/Info : Advanced Video Codec
Format profile : [email protected]
Format settings, CABAC : Yes
Format settings, ReFrames : 12 frames
Codec ID : V_MPEG4/ISO/AVC
Duration : 1h 43mn
Bit rate : 3 290 Kbps
Width : 1 154 pixels
Height : 482 pixels
Display aspect ratio : 2.40:1
Frame rate mode : Constant
Frame rate : 23.976 fps
Color space : YUV
Chroma subsampling : 4:2:0
Bit depth : 8 bits
Scan type : Progressive
Bits/(Pixel*Frame) : 0.247
Stream size : 2.38 GiB (74%)
Title : Encode by Enclave76
Writing library : x264 core 128 r2216kMod 198a7ea
Encoding settings : cabac=1 / ref=12 / deblock=1:-3:-3 / analyse=0x3:0x113 / me=umh / subme=11 / psy=1 / fade_compensate=0.00 / psy_rd=0.95:0.05 / mixed_ref=1 / me_range=64 / chroma_me=1 / trellis=2 / 8x8dct=1 / cqm=0 / deadzone=21,11 / fast_pskip=1 / chroma_qp_offset=-3 / threads=6 / lookahead_threads=1 / sliced_threads=0 / nr=0 / decimate=1 / interlaced=0 / bluray_compat=0 / constrained_intra=0 / bframes=10 / b_pyramid=2 / b_adapt=2 / b_bias=0 / direct=1 / weightb=1 / open_gop=0 / weightp=2 / keyint=240 / keyint_min=23 / scenecut=40 / intra_refresh=0 / rc_lookahead=40 / rc=crf / mbtree=0 / crf=19.0000 / qcomp=0.65 / qpmin=0 / qpmax=69 / qpstep=4 / vbv_maxrate=50000 / vbv_bufsize=62500 / crf_max=0.0 / nal_hrd=none / ip_ratio=1.40 / pb_ratio=1.30 / aq=3:1.10 / zones=137796,148848,q=30
Language : English
Default : No
Forced : No
Matrix coefficients : BT.709
Audio #1
ID : 2
Format : AC-3
Format/Info : Audio Coding 3
Mode extension : CM (complete main)
Format settings, Endianness : Big
Codec ID : A_AC3
Duration : 1h 43mn
Bit rate mode : Constant
Bit rate : 448 Kbps
Channel(s) : 6 channels
Channel positions : Front: L C R, Side: L R, LFE
Sampling rate : 48.0 KHz
Bit depth : 16 bits
Compression mode : Lossy
Stream size : 332 MiB (10%)
Title : Dub
Language : Russian
Default : Yes
Forced : No
Audio #2
ID : 3
Format : AC-3
Format/Info : Audio Coding 3
Mode extension : CM (complete main)
Format settings, Endianness : Big
Codec ID : A_AC3
Duration : 1h 43mn
Bit rate mode : Constant
Bit rate : 192 Kbps
Channel(s) : 2 channels
Channel positions : Front: L R
Sampling rate : 48.0 KHz
Bit depth : 16 bits
Compression mode : Lossy
Stream size : 142 MiB (4%)
Title : Dub RenTV
Language : Russian
Default : No
Forced : No
Audio #3
ID : 4
Format : AC-3
Format/Info : Audio Coding 3
Mode extension : CM (complete main)
Format settings, Endianness : Big
Codec ID : A_AC3
Duration : 1h 43mn
Bit rate mode : Constant
Bit rate : 448 Kbps
Channel(s) : 6 channels
Channel positions : Front: L C R, Side: L R, LFE
Sampling rate : 48.0 KHz
Bit depth : 16 bits
Compression mode : Lossy
Stream size : 332 MiB (10%)
Title : Original
Language : English
Default : No
Forced : No
Text #1
ID : 5
Format : UTF-8
Codec ID : S_TEXT/UTF8
Codec ID/Info : UTF-8 Plain Text
Title : forced
Language : Russian
Default : Yes
Forced : No
Text #2
ID : 6
Format : UTF-8
Codec ID : S_TEXT/UTF8
Codec ID/Info : UTF-8 Plain Text
Language : Russian
Default : No
Forced : No
Text #3
ID : 7
Format : UTF-8
Codec ID : S_TEXT/UTF8
Codec ID/Info : UTF-8 Plain Text
Language : English
Default : No
Forced : No
Text #4
ID : 8
Format : UTF-8
Codec ID : S_TEXT/UTF8
Codec ID/Info : UTF-8 Plain Text
Title : SDH
Language : English
Default : No
Forced : No
Menu
00:00:00.000 : en:Under Siege
00:10:41.265 : en:Take It or Leave It
00:17:33.302 : en:No Good
00:19:37.301 : en:Christmas Time
00:26:17.200 : en:The Inside
00:31:26.885 : en:Down to Business
00:36:50.082 : en:Can't Trust You
00:45:05.494 : en:Army Raid
00:47:09.785 : en:The Contact
00:55:10.557 : en:Behind Schedule
00:58:00.185 : en:I Belong Here
01:07:04.645 : en:A Statement
01:14:43.854 : en:Your Life
01:20:29.032 : en:How It Starts
01:29:35.203 : en:Kept Walking
01:31:16.804 : en:Questions
01:34:40.758 : en:My Choice

Скриншоты






vs source

[Цитировать]



Показать сообщения:    

Текущее время: 04-Дек 13:19

Часовой пояс: UTC + 3


Вы не можете начинать темы
Вы не можете отвечать на сообщения
Вы не можете редактировать свои сообщения
Вы не можете удалять свои сообщения
Вы не можете голосовать в опросах
Вы не можете прикреплять файлы к сообщениям
Вы не можете скачивать файлы

!ВНИМАНИЕ!
Сайт не предоставляет электронные версии произведений, а занимается лишь коллекционированием и каталогизацией ссылок, присылаемых и публикуемых на форуме нашими читателями. Если вы являетесь правообладателем какого-либо представленного материала и не желаете, чтобы ссылка на него находилась в нашем каталоге, свяжитесь с нами, и мы незамедлительно удалим ее. Файлы для обмена на трекере предоставлены пользователями сайта, и администрация не несет ответственности за их содержание. Просьба не заливать файлы, защищенные авторскими правами, а также файлы нелегального содержания!