[ Сегодня идет свободное скачивание без начисления Download ]


Статистика раздачи
Нет
 
   
 
Top  
 
 
Дневник памятиThe Notebook Год выпуска: 2004
Страна: США
Жанр: драма, мелодрама
Продолжительность: 02:03:48
Перевод: Профессиональный полное дублирование
Субтитры: нет-Режиссер: Ник Кассаветис / Nick Cassavetes-В ролях:
Райан Гослинг, Рэйчел МакАдамс, Джина Роулендс, Джеймс Гарнер, Сэм Шепард, Джоан Аллен, Дэвид Торнтон, Тим Айви, Старлетта Дюпуа, Энтони-Майкл К. Томас, Эд Грейди, Джеймс Марсден, Хезер Уолкист, Дженнифер Экхолс, Джеффри Найт, Кевин Коннолли, Рени Эмбер, Эндрю Шафф, Мэтт Шелли, Майкл Д. Фуллер, Джонатан Паркс Джордан, Лесли Фишер, Каллен Мосс, Трэйси Динвидди, Квели Липарт, Питер Розенфельд, Эрин Гузовски, Обба Бабатунде, Чак Пачеко, Марк Джонсон, Барбара Уитман, Саша Азеведо, Джэми Браун, Роберт Айви, Ребекка Коон, Сандра В. Ван Натта, Сильвия Джеффрис, Элизабет Бонд, Мэттью Бэрри, Линдсэй Бишоп-Описание:
История любви, прочитанная пожилым мужчиной из старой записной книжки женщине в доме престарелых. Это история отношений юноши и девушки из разных социальных слоев, живших в Северной Каролине. Ной и Элли провели вместе незабываемое лето, пока их не разделили вначале родители, а затем Вторая мировая война.-* Фильм снят по сюжету одноименного романа Николаса Спаркса, опубликованного в 1996 году и ставшего бестселлером в первую же неделю продаж.
* Проект находился в разработке 7 лет. Первоначальной кандидатурой на роль Элли была Эшли Джадд.
* Сыгравшая пожилую Элли Нелсон актриса Джина Роулэндс – мать режиссера Ника Кассаветеса.
* «Дневник памяти» - один из многочисленных проектов, до которых не дошли руки у Стивена Спилберга. Так же режиссером картины мог стать Мартин Кэмпбелл.
* Фильм был в разработке на New Line с 1995, и тогда предполагалось, что главной его звездой станет Том Круз. В 1999 студия подошла буквально вплотную к производству с режиссером Джимом Шериданом и еще слабо раскрученной Эшли Джадд в роли молодой героини. Кроме того, роли старого и молодого возлюбенного Элли предлагались Роберту Дюваллу и Мэтту Деймону.
* Съемки фильма проходили в Южной Каролине с ноября 2002 года по февраль 2003.
* Лента должна была выйти в прокат осенью 2003. Однако New Line Cinema перенесла релиз сначала на весну 2004, а потом на 25 июня того же года.
* «Дневник памяти» - третья экранизация романа популярного писателя Николаса Спаркса. До этого были «Спеши любить» и «Послание в бутылке».
* Джастин Тимберлейк рассматривался в качестве кандидата на роль Ноя.
-Дополнительно:
Оригинальную дорожку и субтитры можно скачать отдельно здесь (спасибо kingsize87)-IMDB: 7.9/10 (161,544 votes)
Кинопоиск: 8.360 (76 027) Top 250: 68--Сэмпл--Качество: BDRip-AVC (спасибо -DaRkY-)
Формат: MKV
Видео кодек: H.264
Аудио кодек: АС3
Видео: 1008 x 432 (2.35 :1), 23.976 fps, 1293 Кбит/сек, 0.12 bit/pixel
Аудио: 48 kHz, AC3 Dolby Digital, 3/2 (L,C,R,l,r) + LFE ch, ~384.00 kbps avg

Скриншоты




FAQ по просмотру MKV/h.264/AAC

MediaInfo

General
Unique ID : 228553197961593289777018983716429923440 (0xABF1BEAA29882232B0B7A47064768470)
Complete name : D:\Notebook.2004.BDRip-AVC.mkv
Format : Matroska
Format version : Version 2
File size : 1.45 GiB
Duration : 2h 3mn
Overall bit rate mode : Variable
Overall bit rate : 1 681 Kbps
Encoded date : UTC 2012-04-14 10:34:03
Writing application : mkvmerge v5.0.1 ('Es ist Sommer') built on Oct 24 2011 19:45:06
Writing library : libebml v1.2.2 + libmatroska v1.3.0
Video
ID : 1
Format : AVC
Format/Info : Advanced Video Codec
Format profile : [email protected]
Format settings, CABAC : Yes
Format settings, ReFrames : 10 frames
Codec ID : V_MPEG4/ISO/AVC
Duration : 2h 3mn
Bit rate mode : Variable
Bit rate : 1 293 Kbps
Maximum bit rate : 40.0 Mbps
Width : 1 008 pixels
Height : 432 pixels
Display aspect ratio : 2.35:1
Frame rate : 23.976 fps
Color space : YUV
Chroma subsampling : 4:2:0
Bit depth : 8 bits
Scan type : Progressive
Bits/(Pixel*Frame) : 0.124
Stream size : 1.09 GiB (75%)
Writing library : x264 core 120 r2164 da19765
Encoding settings : cabac=1 / ref=10 / deblock=1:-2:-1 / analyse=0x3:0x113 / me=umh / subme=11 / psy=1 / psy_rd=1.00:0.03 / mixed_ref=1 / me_range=32 / chroma_me=1 / trellis=2 / 8x8dct=1 / cqm=0 / deadzone=21,11 / fast_pskip=1 / chroma_qp_offset=-3 / threads=6 / sliced_threads=0 / nr=0 / decimate=1 / interlaced=0 / bluray_compat=0 / constrained_intra=0 / bframes=8 / b_pyramid=2 / b_adapt=2 / b_bias=0 / direct=3 / weightb=1 / open_gop=0 / weightp=2 / keyint=240 / keyint_min=24 / scenecut=40 / intra_refresh=0 / rc_lookahead=60 / rc=2pass / mbtree=1 / bitrate=1293 / ratetol=1.0 / qcomp=0.70 / qpmin=10 / qpmax=51 / qpstep=4 / cplxblur=20.0 / qblur=0.5 / ip_ratio=1.40 / aq=1:1.0
Audio
ID : 2
Format : AC-3
Format/Info : Audio Coding 3
Mode extension : CM (complete main)
Codec ID : A_AC3
Duration : 2h 3mn
Bit rate mode : Constant
Bit rate : 384 Kbps
Channel(s) : 6 channels
Channel positions : Front: L C R, Side: L R, LFE
Sampling rate : 48.0 KHz
Bit depth : 16 bits
Compression mode : Lossy
Stream size : 340 MiB (23%)
Title : Dub
Language : Russian

[Цитировать]



Показать сообщения:    

Текущее время: 04-Дек 11:15

Часовой пояс: UTC + 3


Вы не можете начинать темы
Вы не можете отвечать на сообщения
Вы не можете редактировать свои сообщения
Вы не можете удалять свои сообщения
Вы не можете голосовать в опросах
Вы не можете прикреплять файлы к сообщениям
Вы не можете скачивать файлы

!ВНИМАНИЕ!
Сайт не предоставляет электронные версии произведений, а занимается лишь коллекционированием и каталогизацией ссылок, присылаемых и публикуемых на форуме нашими читателями. Если вы являетесь правообладателем какого-либо представленного материала и не желаете, чтобы ссылка на него находилась в нашем каталоге, свяжитесь с нами, и мы незамедлительно удалим ее. Файлы для обмена на трекере предоставлены пользователями сайта, и администрация не несет ответственности за их содержание. Просьба не заливать файлы, защищенные авторскими правами, а также файлы нелегального содержания!