[ Сегодня идет свободное скачивание без начисления Download ]


Статистика раздачи
Нет
 
   
 
Top  
 
 
- Человек-паук / Spider-man (2002)- «Turn your world upside down» - Русское название: Человек-паук
Оригинальное название: Spider-man
Год выпуска: 2002
Производство: США
Жанр: фантастика, боевик, приключения
Перевод: Дублированный, профессиональный двухголосый (Гланц и Назарова), авторский одноголосый (Королев)
Язык субтитров: Русский, Английский
Вид cубтитров: Вшитые отключаемые
Дата мировой премьеры: 30 апреля 2002
Дата российской премьеры: 1 мая 2002, «Каскад»
Дата выхода DVD релиза: 21 июня 2012, «Columbia/Sony»
Режиссер: Сэм Рэйми
Продюсер: Йен Брюс, Лора Зискин, Ави Арад
Актеры: Тоби Магуайр, Уиллем Дефо, Кирстен Данст, Джеймс Франко, Клифф Робертсон, Розмари Харрис, Дж.К. Симмонс, Джо Манганьелло, Майкл Пападжон, Билл Нанн
Описание фильма:
Еще вчера Питер Паркер был обычным школьником, которого все считали неудачником и занудой, но в один прекрасный день с ним происходит чудо. Питера кусает паук-мутант, после чего с нескладным юношей происходит фантастическая метаморфоза! Невероятным образом обостряются все его чувства. Он обретает огромную силу и ловкость, а главное, умение лазать по стенам и выбрасывать прочную как сталь паутину!- -Продолжительность: 02:01:12
Качество видео: ВDRip
Видеокодек: MPEG 4 AVC/H.264
Битрейт видео: ~ 3500 Кбит/сек
Размер кадра: 1024x556
Аудио #1: Русский: АС3, 6 ch, 448 Кбит/с - Дубляж
Аудио #2: Русский: АС3, 6 ch, 448 Кбит/с - Гланц и Назарова - отдельно
Аудио #3: Русский: АС3, 6 ch, 448 Кбит/с - Каролев - отдельно
Аудио #4: Английский: АС3, 6 ch, 448 Кбит/с - отдельно
-

MI

Общее
Уникальный идентификатор                 : 188654859625371914777203975432398230767 (0x8DED9AB56A2496EDB88363B297C4D4EF)
Полное имя                               : E:\Загрузка\Человек паук BDRip AVC\Chelovek.Pauk.2002.x264.BDRip\Chelovek.Pauk.2002.x264.BDRip.(AVC).Kinozal.TV-AVC.mkv
Формат                                   : Matroska
Версия формата                           : Version 2
Размер файла                             : 3,34 Гбайт
Продолжительность                        : 2 ч. 1 м.
Общий поток                              : 3948 Кбит/сек
Дата кодирования                         : UTC 2011-07-24 10:00:50
Программа кодирования                    : mkvmerge v4.0.0 ('The Stars were mine') сборка от Jun  6 2010 16:18:42
Библиотека кодирования                   : libebml v1.0.0 + libmatroska v1.0.0
Видео
Идентификатор                            : 1
Формат                                   : AVC
Формат/Информация                        : Advanced Video Codec
Профиль формата                          : [url=mailto:High@L4.1]High@L4.1[/url]
Параметр CABAC формата                   : Да
Параметр ReFrames формата                : 8 кадров
Идентификатор кодека                     : V_MPEG4/ISO/AVC
Продолжительность                        : 2 ч. 1 м.
Битрейт                                  : 3500 Кбит/сек
Ширина                                   : 1024 пикселя
Высота                                   : 556 пикселей
Соотношение сторон                       : 1,85:1
Частота кадров                           : 23,976 кадра/сек
Цветовое пространство                    : YUV
Субдискретизация насыщенности            : 4:2:0
Битовая глубина                          : 8 бит
Тип развёртки                            : Прогрессивная
Бит/(Пиксели*Кадры)                      : 0.256
Размер потока                            : 2,90 Гбайт (87%)
Заголовок                                : Rip by DenisNN
Библиотека кодирования                   : x264 core 115 r1995 c1e60b9
Настройки программы                      : cabac=1 / ref=8 / deblock=1:-2:-2 / analyse=0x3:0x133 / me=hex / subme=9 / psy=1 / psy_rd=1.00:0.00 / mixed_ref=1 / me_range=16 / chroma_me=1 / trellis=2 / 8x8dct=1 / cqm=0 / deadzone=21,11 / fast_pskip=0 / chroma_qp_offset=-2 / threads=3 / sliced_threads=0 / nr=0 / decimate=1 / interlaced=0 / bluray_compat=0 / constrained_intra=0 / bframes=5 / b_pyramid=2 / b_adapt=2 / b_bias=0 / direct=3 / weightb=1 / open_gop=0 / weightp=2 / keyint=250 / keyint_min=23 / scenecut=40 / intra_refresh=0 / rc=2pass / mbtree=0 / bitrate=3500 / ratetol=1.0 / qcomp=0.60 / qpmin=10 / qpmax=51 / qpstep=4 / cplxblur=20.0 / qblur=0.5 / ip_ratio=1.40 / pb_ratio=1.30 / aq=2:1.00
Язык                                     : English
Default                                  : Нет
Forced                                   : Нет
Аудио
Идентификатор                            : 2
Формат                                   : AC-3
Формат/Информация                        : Audio Coding 3
Расширение режима                        : CM (complete main)
Параметр Endianness формата              : Big
Идентификатор кодека                     : A_AC3
Продолжительность                        : 2 ч. 1 м.
Вид битрейта                             : Постоянный
Битрейт                                  : 448 Кбит/сек
Каналы                                   : 6 каналов
Расположение каналов                     : Front: L C R, Side: L R, LFE
Частота                                  : 48,0 КГц
Битовая глубина                          : 16 бит
Метод сжатия                             : С потерями
Размер потока                            : 388 Мбайт (11%)
Заголовок                                : Дубляж
Язык                                     : Russian
Default                                  : Нет
Forced                                   : Нет
Текст #1
Идентификатор                            : 3
Формат                                   : UTF-8
Идентификатор кодека                     : S_TEXT/UTF8
Идентификатор кодека/Информация          : UTF-8 Plain Text
Заголовок                                : Русские
Язык                                     : Russian
Default                                  : Нет
Forced                                   : Нет
Текст #2
Идентификатор                            : 4
Формат                                   : UTF-8
Идентификатор кодека                     : S_TEXT/UTF8
Идентификатор кодека/Информация          : UTF-8 Plain Text
Заголовок                                : Английские
Язык                                     : English
Default                                  : Нет
Forced                                   : Нет
Текст #3
Идентификатор                            : 5
Формат                                   : UTF-8
Идентификатор кодека                     : S_TEXT/UTF8
Идентификатор кодека/Информация          : UTF-8 Plain Text
Заголовок                                : Русские 2
Язык                                     : Russian
Default                                  : Нет
Forced                                   : Нет
Текст #4
Идентификатор                            : 6
Формат                                   : UTF-8
Идентификатор кодека                     : S_TEXT/UTF8
Идентификатор кодека/Информация          : UTF-8 Plain Text
Заголовок                                : Русские 3
Язык                                     : Russian
Default                                  : Нет
Forced                                   : Нет
Меню
00:00:00.000                             : :Chapter 01
00:06:29.472                             : :Chapter 02
00:09:22.895                             : :Chapter 03
00:14:56.186                             : :Chapter 04
00:17:50.652                             : :Chapter 05
00:21:53.603                             : :Chapter 06
00:23:28.615                             : :Chapter 07
00:25:18.767                             : :Chapter 08
00:34:35.114                             : :Chapter 09
00:40:22.169                             : :Chapter 10
00:41:44.126                             : :Chapter 11
00:43:13.882                             : :Chapter 12
00:44:40.010                             : :Chapter 13
00:54:32.978                             : :Chapter 14
00:55:52.557                             : :Chapter 15
01:00:48.936                             : :Chapter 16
01:04:20.773                             : :Chapter 17
01:05:57.036                             : :Chapter 18
01:12:12.369                             : :Chapter 19
01:14:18.871                             : :Chapter 20
01:15:48.669                             : :Chapter 21
01:19:35.520                             : :Chapter 22
01:22:06.463                             : :Chapter 23
01:25:13.608                             : :Chapter 24
01:30:39.225                             : :Chapter 25
01:39:36.679                             : :Chapter 26
01:45:08.385                             : :Chapter 27
01:50:27.829                             : :Chapter 28
-Cкриншоты из фильма:
- Человек-паук 2.1 / Spider-man 2.1 (2004)- «Take Another Spin In IMAX» - Русское название: Человек-паук 2.1
Оригинальное название: Spider-man 2.1
Год выпуска: 2004
Производство: США
Жанр: фантастика, боевик, приключения
Перевод: Дублированный, профессиональный многоголосый
Язык субтитров: Русский, Английский
Вид cубтитров: Вшитые отключаемые
Дата мировой премьеры: 25 июня 2004
Дата российской премьеры: 30 июня 2004, «Каскад»
Дата выхода DVD релиза: 28 октября 2010, «Columbia/Sony»
Режиссер: Сэм Рэйми
Продюсер: Ави Арад, Лорни Орлинз, Лора Зискин
Актеры: Тоби Магуайр, Кирстен Данст, Джеймс Франко, Альфред Молина, Розмари Харрис, Дж.К. Симмонс, Донна Мерфи, Дэниэл Гиллис, Дилан Бейкер, Билл Нанн
Описание фильма:
Мучимый своими секретами, Питер понимает, что его отношения со всеми, кто ему дорог, в опасности или заходят в тупик. Его любовь к Мэри Джейн становится еще сильнее, обостряемая порывом Питера раскрыть ей свой секрет и признаться в любви. Дружба с Гарри осложняется горечью молодого Осборна по умершему отцу и всё большим желанием отомстить Человеку-Пауку. Даже любимая тетушка Мэй, у которой были нелегкие времена после смерти дяди Бена, начинает что-то подозревать насчет своего племянника. Жизнь Питера становится еще более сложной, когда он сталкивается с новым суперзлодеем — доктором Отто Октавиусом. Питер должен использовать все свои суперспособности, чтобы одолеть этого жестокого безумца с восемью конечностями…- -Продолжительность: 02:15:48
Качество видео: ВDRip
Видеокодек: MPEG 4 AVC/H.264
Битрейт видео: ~ 2928 Кбит/сек
Размер кадра: 1024x428
Аудио #1: Русский: АС3, 6 ch, 448 Кбит/с - Дубляж
Аудио #2: Русский: АС3, 6 ch, 448 Кбит/с - Многоголосый закадровый - отдельно
Аудио #3: Английский: АС3, 6 ch, 448 Кбит/с - отдельно
-

MI

Общее
Уникальный идентификатор                 : 229803463052665894892292709410957334484 (0xACE2897E2FB73CEEBE85E2A15AB697D4)
Полное имя                               : E:\Загрузка\Человек паук BDRip AVC\Chelovek.Pauk.2.1.2004.x264.BDRip\Chelovek.Pauk.2.1.2004.x264.BDRip.(AVC).Kinozal.TV-AVC.mkv
Формат                                   : Matroska
Версия формата                           : Version 2
Размер файла                             : 3,20 Гбайт
Продолжительность                        : 2 ч. 15 м.
Общий поток                              : 3376 Кбит/сек
Дата кодирования                         : UTC 2012-11-05 11:35:15
Программа кодирования                    : mkvmerge v5.2.1 ('A Far Off Place') built on Feb  6 2012 10:08:15
Библиотека кодирования                   : libebml v1.2.3 + libmatroska v1.3.0
Видео
Идентификатор                            : 1
Формат                                   : AVC
Формат/Информация                        : Advanced Video Codec
Профиль формата                          : [url=mailto:High@L4.1]High@L4.1[/url]
Параметр CABAC формата                   : Да
Параметр ReFrames формата                : 8 кадров
Идентификатор кодека                     : V_MPEG4/ISO/AVC
Продолжительность                        : 2 ч. 15 м.
Битрейт                                  : 2928 Кбит/сек
Ширина                                   : 1024 пикселя
Высота                                   : 428 пикселей
Соотношение сторон                       : 2,40:1
Частота кадров                           : 23,976 кадра/сек
Цветовое пространство                    : YUV
Субдискретизация насыщенности            : 4:2:0
Битовая глубина                          : 8 бит
Тип развёртки                            : Прогрессивная
Бит/(Пиксели*Кадры)                      : 0.279
Размер потока                            : 2,71 Гбайт (85%)
Заголовок                                : Rip by DenisNN
Библиотека кодирования                   : x264 core 115 r1995 c1e60b9
Настройки программы                      : cabac=1 / ref=8 / deblock=1:-2:-2 / analyse=0x3:0x133 / me=hex / subme=9 / psy=1 / psy_rd=1.00:0.00 / mixed_ref=1 / me_range=16 / chroma_me=1 / trellis=2 / 8x8dct=1 / cqm=0 / deadzone=21,11 / fast_pskip=0 / chroma_qp_offset=-2 / threads=3 / sliced_threads=0 / nr=0 / decimate=1 / interlaced=0 / bluray_compat=0 / constrained_intra=0 / bframes=5 / b_pyramid=2 / b_adapt=2 / b_bias=0 / direct=3 / weightb=1 / open_gop=0 / weightp=2 / keyint=250 / keyint_min=23 / scenecut=40 / intra_refresh=0 / rc=2pass / mbtree=0 / bitrate=2928 / ratetol=1.0 / qcomp=0.60 / qpmin=10 / qpmax=51 / qpstep=4 / cplxblur=20.0 / qblur=0.5 / ip_ratio=1.40 / pb_ratio=1.30 / aq=2:1.00
Язык                                     : English
Default                                  : Нет
Forced                                   : Нет
Аудио
Идентификатор                            : 2
Формат                                   : AC-3
Формат/Информация                        : Audio Coding 3
Расширение режима                        : CM (complete main)
Параметр Endianness формата              : Big
Идентификатор кодека                     : A_AC3
Продолжительность                        : 2 ч. 15 м.
Вид битрейта                             : Постоянный
Битрейт                                  : 448 Кбит/сек
Каналы                                   : 6 каналов
Расположение каналов                     : Front: L C R, Side: L R, LFE
Частота                                  : 48,0 КГц
Битовая глубина                          : 16 бит
Метод сжатия                             : С потерями
Размер потока                            : 435 Мбайт (13%)
Заголовок                                : Дубляж и MVO
Язык                                     : Russian
Default                                  : Да
Forced                                   : Нет
Текст #1
Идентификатор                            : 3
Формат                                   : UTF-8
Идентификатор кодека                     : S_TEXT/UTF8
Идентификатор кодека/Информация          : UTF-8 Plain Text
Заголовок                                : Русские к дубляжу
Язык                                     : Russian
Default                                  : Нет
Forced                                   : Нет
Текст #2
Идентификатор                            : 4
Формат                                   : UTF-8
Идентификатор кодека                     : S_TEXT/UTF8
Идентификатор кодека/Информация          : UTF-8 Plain Text
Заголовок                                : Русские
Язык                                     : Russian
Default                                  : Нет
Forced                                   : Нет
Текст #3
Идентификатор                            : 5
Формат                                   : UTF-8
Идентификатор кодека                     : S_TEXT/UTF8
Идентификатор кодека/Информация          : UTF-8 Plain Text
Заголовок                                : Английские
Язык                                     : English
Default                                  : Нет
Forced                                   : Нет
Меню
00:00:00.000                             : :Chapter 01
00:03:27.457                             : :Chapter 02
00:08:13.534                             : :Chapter 03
00:09:41.455                             : :Chapter 04
00:10:54.945                             : :Chapter 05
00:16:10.844                             : :Chapter 06
00:19:24.663                             : :Chapter 07
00:21:19.736                             : :Chapter 08
00:25:05.629                             : :Chapter 09
00:25:43.667                             : :Chapter 10
00:27:16.843                             : :Chapter 11
00:29:17.797                             : :Chapter 12
00:31:39.647                             : :Chapter 13
00:32:47.131                             : :Chapter 14
00:35:20.910                             : :Chapter 15
00:37:27.119                             : :Chapter 16
00:44:07.770                             : :Chapter 17
00:46:11.143                             : :Chapter 18
00:47:29.554                             : :Chapter 19
00:49:01.146                             : :Chapter 20
00:51:17.449                             : :Chapter 21
00:54:21.716                             : :Chapter 22
00:57:42.166                             : :Chapter 23
01:02:44.343                             : :Chapter 24
01:04:15.893                             : :Chapter 25
01:06:08.297                             : :Chapter 26
01:08:26.268                             : :Chapter 27
01:10:49.578                             : :Chapter 28
01:12:33.599                             : :Chapter 29
01:15:23.435                             : :Chapter 30
01:17:11.293                             : :Chapter 31
01:21:21.793                             : :Chapter 32
01:24:15.717                             : :Chapter 33
01:26:49.537                             : :Chapter 34
01:28:59.333                             : :Chapter 35
01:32:49.146                             : :Chapter 36
01:34:22.740                             : :Chapter 37
01:35:44.655                             : :Chapter 38
01:38:13.512                             : :Chapter 39
01:40:40.284                             : :Chapter 40
01:41:46.475                             : :Chapter 41
01:42:44.241                             : :Chapter 42
01:45:32.909                             : :Chapter 43
01:48:16.448                             : :Chapter 44
01:50:58.651                             : :Chapter 45
01:53:12.869                             : :Chapter 46
01:56:23.643                             : :Chapter 47
02:01:27.613                             : :Chapter 48
02:03:50.464                             : :Chapter 49
02:06:17.319                             : :Chapter 50
02:10:14.473                             : :Chapter 51
02:11:03.688                             : :Chapter 52
-Cкриншоты из фильма:
- Человек-паук 3: Враг в отражении / Spider-man 3 (2007)- «Next summer, the greatest battle lies... within.» - Русское название: Человек-паук 3: Враг в отражении
Оригинальное название: Spider-man 3
Год выпуска: 2007
Производство: США
Жанр: фантастика, боевик, приключения
Перевод: Дублированный
Язык субтитров: Русский, Английский
Вид cубтитров: Вшитые отключаемые
Дата мировой премьеры: 16 апреля 2007
Дата российской премьеры: 3 мая 2007, «BVSPR»
Дата выхода DVD релиза: 3 февраля 2011, «Columbia/Sony»
Режиссер: Сэм Рэйми
Продюсер: Ави Арад, Грант Кертис, Лора Зискин
Актеры: Тоби Магуайр, Кирстен Данст, Джеймс Франко, Томас Хейден Чёрч, Тофер Грейс, Брайс Даллас Ховард, Розмари Харрис, Дж.К. Симмонс, Джеймс Кромуэлл, Илья Баскин
Описание фильма:
Прошло пять лет с тех пор, как Питер осознал, что «с Великой силой приходит Великая ответственность!», и три года с тех пор, как он отказался быть борцом за справедливость. Но сейчас кажется, Питер прекрасно научился жить несколькими жизнями. Он хорошо учится, Нью-Йорк признал его героем, отношения с Мэри Джейн прочные. Питер даже намеревается сделать ей предложение!Но к сожалению, его лучший друг Гарри Озборн по-прежнему считает, что именно Человек-паук несет ответственность за безвременную кончину его отца. Гарри намеревается отомстить ему в образе Нового Гоблина. В то же самое время на криминальной сцене Нью-Йорка появляется другой могущественный суперзлодей, известный как Песочный Человек.Когда Человек-паук надевает таинственный черный костюм, его темная, более мстительная сторона полностью поглощает его. Эти трансформации заставляют его встретиться с самым сильным противником ? с самим собой...- -Продолжительность: 02:19:11
Качество видео: ВDRip
Видеокодек: MPEG 4 AVC/H.264
Битрейт видео: ~ 3300 Кбит/сек
Размер кадра: 1024x426
Аудио #1: Русский: АС3, 6 ch, 448 Кбит/с - Дубляж
Аудио #2: Английский: АС3, 6 ch, 448 Кбит/с - отдельно
-

MI

Общее
Уникальный идентификатор                 : 225640761051127378215605363403540438886 (0xA9C0D47047E2E4B8A87D8F4888489F66)
Полное имя                               : E:\Загрузка\Человек паук BDRip AVC\Chelovek.Pauk.3.2007.x264.BDRip\Chelovek.Pauk.3.2007.x264.BDRip.(AVC).Kinozal.TV-AVC.mkv
Формат                                   : Matroska
Версия формата                           : Version 2
Размер файла                             : 3,64 Гбайт
Продолжительность                        : 2 ч. 19 м.
Общий поток                              : 3747 Кбит/сек
Дата кодирования                         : UTC 2012-11-05 12:12:03
Программа кодирования                    : mkvmerge v5.2.1 ('A Far Off Place') built on Feb  6 2012 10:08:15
Библиотека кодирования                   : libebml v1.2.3 + libmatroska v1.3.0
Видео
Идентификатор                            : 1
Формат                                   : AVC
Формат/Информация                        : Advanced Video Codec
Профиль формата                          : [url=mailto:High@L4.1]High@L4.1[/url]
Параметр CABAC формата                   : Да
Параметр ReFrames формата                : 8 кадров
Идентификатор кодека                     : V_MPEG4/ISO/AVC
Продолжительность                        : 2 ч. 19 м.
Битрейт                                  : 3300 Кбит/сек
Ширина                                   : 1024 пикселя
Высота                                   : 426 пикселей
Соотношение сторон                       : 2,40:1
Частота кадров                           : 23,976 кадра/сек
Цветовое пространство                    : YUV
Субдискретизация насыщенности            : 4:2:0
Битовая глубина                          : 8 бит
Тип развёртки                            : Прогрессивная
Бит/(Пиксели*Кадры)                      : 0.316
Размер потока                            : 3,13 Гбайт (86%)
Заголовок                                : Rip by DenisNN
Библиотека кодирования                   : x264 core 114 r1924 08d04a4
Настройки программы                      : cabac=1 / ref=8 / deblock=1:-1:-1 / analyse=0x3:0x133 / me=umh / subme=9 / psy=1 / psy_rd=1.00:0.00 / mixed_ref=1 / me_range=48 / chroma_me=1 / trellis=2 / 8x8dct=1 / cqm=0 / deadzone=21,11 / fast_pskip=0 / chroma_qp_offset=-2 / threads=3 / sliced_threads=0 / nr=0 / decimate=1 / interlaced=0 / constrained_intra=0 / bframes=5 / b_pyramid=2 / b_adapt=2 / b_bias=0 / direct=3 / weightb=1 / open_gop=0 / weightp=2 / keyint=250 / keyint_min=23 / scenecut=40 / intra_refresh=0 / rc=2pass / mbtree=0 / bitrate=3300 / ratetol=1.0 / qcomp=0.60 / qpmin=10 / qpmax=51 / qpstep=4 / cplxblur=20.0 / qblur=0.5 / ip_ratio=1.40 / pb_ratio=1.30 / aq=2:1.00
Язык                                     : English
Default                                  : Нет
Forced                                   : Нет
Аудио
Идентификатор                            : 2
Формат                                   : AC-3
Формат/Информация                        : Audio Coding 3
Расширение режима                        : CM (complete main)
Параметр Endianness формата              : Big
Идентификатор кодека                     : A_AC3
Продолжительность                        : 2 ч. 19 м.
Вид битрейта                             : Постоянный
Битрейт                                  : 448 Кбит/сек
Каналы                                   : 6 каналов
Расположение каналов                     : Front: L C R, Side: L R, LFE
Частота                                  : 48,0 КГц
Битовая глубина                          : 16 бит
Метод сжатия                             : С потерями
Размер потока                            : 446 Мбайт (12%)
Заголовок                                : Дубляж
Язык                                     : Russian
Default                                  : Да
Forced                                   : Нет
Текст #1
Идентификатор                            : 3
Формат                                   : UTF-8
Идентификатор кодека                     : S_TEXT/UTF8
Идентификатор кодека/Информация          : UTF-8 Plain Text
Заголовок                                : Русские
Язык                                     : Russian
Default                                  : Нет
Forced                                   : Нет
Текст #2
Идентификатор                            : 4
Формат                                   : UTF-8
Идентификатор кодека                     : S_TEXT/UTF8
Идентификатор кодека/Информация          : UTF-8 Plain Text
Заголовок                                : Русские 2
Язык                                     : Russian
Default                                  : Нет
Forced                                   : Нет
Текст #3
Идентификатор                            : 5
Формат                                   : UTF-8
Идентификатор кодека                     : S_TEXT/UTF8
Идентификатор кодека/Информация          : UTF-8 Plain Text
Заголовок                                : Английские
Язык                                     : English
Default                                  : Да
Forced                                   : Нет
Меню
00:00:00.000                             : :Chapter 01
00:03:11.524                             : :Chapter 02
00:04:39.737                             : :Chapter 03
00:07:59.770                             : :Chapter 04
00:08:33.679                             : :Chapter 05
00:10:30.254                             : :Chapter 06
00:13:54.708                             : :Chapter 07
00:16:55.014                             : :Chapter 08
00:22:24.301                             : :Chapter 09
00:24:44.941                             : :Chapter 10
00:27:11.546                             : :Chapter 11
00:30:12.644                             : :Chapter 12
00:32:31.240                             : :Chapter 13
00:36:10.334                             : :Chapter 14
00:39:43.964                             : :Chapter 15
00:40:08.489                             : :Chapter 16
00:41:43.209                             : :Chapter 17
00:43:20.014                             : :Chapter 18
00:44:43.472                             : :Chapter 19
00:46:39.004                             : :Chapter 20
00:49:24.544                             : :Chapter 21
00:51:53.151                             : :Chapter 22
00:59:27.730                             : :Chapter 23
01:03:30.473                             : :Chapter 24
01:06:34.532                             : :Chapter 25
01:08:07.416                             : :Chapter 26
01:10:45.824                             : :Chapter 27
01:13:50.592                             : :Chapter 28
01:15:23.393                             : :Chapter 29
01:16:42.264                             : :Chapter 30
01:19:21.715                             : :Chapter 31
01:22:16.681                             : :Chapter 32
01:24:21.347                             : :Chapter 33
01:27:08.348                             : :Chapter 34
01:30:17.787                             : :Chapter 35
01:32:43.474                             : :Chapter 36
01:35:14.375                             : :Chapter 37
01:35:53.497                             : :Chapter 38
01:40:46.331                             : :Chapter 39
01:44:15.624                             : :Chapter 40
01:47:20.225                             : :Chapter 41
01:49:10.794                             : :Chapter 42
01:52:52.724                             : :Chapter 43
01:56:34.570                             : :Chapter 44
01:59:57.106                             : :Chapter 45
02:00:28.346                             : :Chapter 46
02:02:26.756                             : :Chapter 47
02:04:29.378                             : :Chapter 48
02:06:11.313                             : :Chapter 49
02:09:33.474                             : :Chapter 50
02:11:56.491                             : :Chapter 51
02:13:59.197                             : :Chapter 52
-Cкриншоты из фильма:
- Новый Человек-паук / The Amazing Spider-Man (2012)- «Новый герой, новая история, новая любовь» - Русское название: Новый Человек-паук
Оригинальное название: The Amazing Spider-Man
Год выпуска: 2012
Производство: США
Жанр: фантастика, боевик, приключения
Перевод: Дублированный
Язык субтитров: Русский, Английский
Вид cубтитров: Вшитые отключаемые
Дата мировой премьеры: 13 июня 2012
Дата российской премьеры: 5 июля 2012, «WDSSPR»
Дата выхода DVD релиза: 30 октября 2012, «Columbia/Sony»
Режиссер: Марк Уэбб
Продюсер: Ави Арад, Мэттью Толмак, Лора Зискин
Актеры: Эндрю Гарфилд, Эмма Стоун, Рис Иванс, Дэнис Лири, Мартин Шин, Салли Филд, Эмбет Дэвидц, Кэмпбелл Скотт, Ирфан Кхан, Крис Зилка
Описание фильма:
В детстве Питер Паркер был оставлен своими родителями, и поэтому воспитывался дядей и тётей. Шли годы, Питер был обычным примерным школьником, подвергался нападкам хулиганов и был влюблён в свою одноклассницу Гвен Стейси, которая сама втайне отвечала ему взаимностью. Но после укуса генетически изменённого паука, Питер получает невероятные сверхспособности и его жизнь меняется навсегда.- -Продолжительность: 02:16:17
Качество видео: ВDRip
Видеокодек: MPEG 4 AVC/H.264
Битрейт видео: ~ 2734 Кбит/сек
Размер кадра: 1024x426
Аудио #1: Русский: АС3, 6 ch, 448 Кбит/с - Дубляж
Аудио #2: Английский: АС3, 6 ch, 448 Кбит/с - отдельно
-

MI

Общее
Уникальный идентификатор                 : 231250388442445156141149777958368368698 (0xADF9346C2693602BB17E4C3FBC4ED83A)
Полное имя                               : E:\Загрузка\Человек паук BDRip AVC\The.Amazing.Spider-Man.(2012).x.264.BDRip\The.Amazing.Spider-Man.(2012).x.264.BDRip.(AVC).Kinozal.TV-AVC.mkv
Формат                                   : Matroska
Версия формата                           : Version 2
Размер файла                             : 3,03 Гбайт
Продолжительность                        : 2 ч. 16 м.
Общий поток                              : 3183 Кбит/сек
Дата кодирования                         : UTC 2012-11-05 12:28:28
Программа кодирования                    : mkvmerge v5.2.1 ('A Far Off Place') built on Feb  6 2012 10:08:15
Библиотека кодирования                   : libebml v1.2.3 + libmatroska v1.3.0
Видео
Идентификатор                            : 1
Формат                                   : AVC
Формат/Информация                        : Advanced Video Codec
Профиль формата                          : [url=mailto:High@L4.1]High@L4.1[/url]
Параметр CABAC формата                   : Да
Параметр ReFrames формата                : 9 кадров
Идентификатор кодека                     : V_MPEG4/ISO/AVC
Продолжительность                        : 2 ч. 16 м.
Битрейт                                  : 2734 Кбит/сек
Ширина                                   : 1024 пикселя
Высота                                   : 426 пикселей
Соотношение сторон                       : 2,40:1
Частота кадров                           : 23,976 кадра/сек
Цветовое пространство                    : YUV
Субдискретизация насыщенности            : 4:2:0
Битовая глубина                          : 8 бит
Тип развёртки                            : Прогрессивная
Бит/(Пиксели*Кадры)                      : 0.261
Размер потока                            : 2,54 Гбайт (84%)
Заголовок                                : Новый Человек-паук / The Amazing Spider-Man (2012) BDRip-AVC | HQCLUB
Библиотека кодирования                   : x264 core 120 r2146 bcd41db
Настройки программы                      : cabac=1 / ref=9 / deblock=1:-3:-2 / analyse=0x3:0x133 / me=umh / subme=9 / psy=1 / psy_rd=1.00:0.00 / mixed_ref=1 / me_range=64 / chroma_me=1 / trellis=1 / 8x8dct=1 / cqm=0 / deadzone=21,11 / fast_pskip=1 / chroma_qp_offset=-4 / threads=12 / sliced_threads=0 / nr=0 / decimate=1 / interlaced=0 / bluray_compat=0 / constrained_intra=0 / bframes=10 / b_pyramid=2 / b_adapt=2 / b_bias=0 / direct=1 / weightb=1 / open_gop=0 / weightp=2 / keyint=240 / keyint_min=24 / scenecut=40 / intra_refresh=0 / rc_lookahead=40 / rc=2pass / mbtree=0 / bitrate=2734 / ratetol=1.0 / qcomp=0.60 / qpmin=0 / qpmax=69 / qpstep=4 / cplxblur=20.0 / qblur=0.5 / vbv_maxrate=62500 / vbv_bufsize=50000 / nal_hrd=none / ip_ratio=1.40 / pb_ratio=1.30 / aq=1:0.70
Язык                                     : English
Default                                  : Да
Forced                                   : Нет
Аудио
Идентификатор                            : 2
Формат                                   : AC-3
Формат/Информация                        : Audio Coding 3
Расширение режима                        : CM (complete main)
Параметр Endianness формата              : Big
Идентификатор кодека                     : A_AC3
Продолжительность                        : 2 ч. 16 м.
Вид битрейта                             : Постоянный
Битрейт                                  : 448 Кбит/сек
Каналы                                   : 6 каналов
Расположение каналов                     : Front: L C R, Side: L R, LFE
Частота                                  : 48,0 КГц
Битовая глубина                          : 16 бит
Метод сжатия                             : С потерями
Размер потока                            : 437 Мбайт (14%)
Заголовок                                : Дубляж (BD EUR) AC3 5.1 @ 448 kbps
Язык                                     : Russian
Default                                  : Да
Forced                                   : Да
Текст #1
Идентификатор                            : 3
Формат                                   : UTF-8
Идентификатор кодека                     : S_TEXT/UTF8
Идентификатор кодека/Информация          : UTF-8 Plain Text
Заголовок                                : Full (R5)
Язык                                     : Russian
Default                                  : Да
Forced                                   : Нет
Текст #2
Идентификатор                            : 4
Формат                                   : UTF-8
Идентификатор кодека                     : S_TEXT/UTF8
Идентификатор кодека/Информация          : UTF-8 Plain Text
Заголовок                                : Full
Язык                                     : English
Default                                  : Нет
Forced                                   : Нет
Меню
00:00:00.000                             : en:00:00:00.000
00:07:45.924                             : en:00:07:45.924
00:14:39.670                             : en:00:14:39.670
00:22:57.543                             : en:00:22:57.543
00:32:58.226                             : en:00:32:58.226
00:41:25.066                             : en:00:41:25.066
00:48:42.503                             : en:00:48:42.503
00:55:10.933                             : en:00:55:10.933
01:03:17.293                             : en:01:03:17.293
01:12:29.011                             : en:01:12:29.011
01:17:51.750                             : en:01:17:51.750
01:24:38.949                             : en:01:24:38.949
01:34:04.556                             : en:01:34:04.556
01:42:59.548                             : en:01:42:59.548
01:52:16.355                             : en:01:52:16.355
02:00:52.912                             : en:02:00:52.912
-Cкриншоты из фильма:
- Приятного просмотра
и не забываем говорить СПАСИБО...
-Время раздачи: 24/7
до 15 скачавших..

[Цитировать]



Показать сообщения:    

Текущее время: 08-Дек 15:02

Часовой пояс: UTC + 3


Вы не можете начинать темы
Вы не можете отвечать на сообщения
Вы не можете редактировать свои сообщения
Вы не можете удалять свои сообщения
Вы не можете голосовать в опросах
Вы не можете прикреплять файлы к сообщениям
Вы не можете скачивать файлы

!ВНИМАНИЕ!
Сайт не предоставляет электронные версии произведений, а занимается лишь коллекционированием и каталогизацией ссылок, присылаемых и публикуемых на форуме нашими читателями. Если вы являетесь правообладателем какого-либо представленного материала и не желаете, чтобы ссылка на него находилась в нашем каталоге, свяжитесь с нами, и мы незамедлительно удалим ее. Файлы для обмена на трекере предоставлены пользователями сайта, и администрация не несет ответственности за их содержание. Просьба не заливать файлы, защищенные авторскими правами, а также файлы нелегального содержания!