[ Сегодня идет свободное скачивание без начисления Download ]


Статистика раздачи
Нет
 
   
 
Top  
 
 
-Человек-паук / Spider-man (2002) HDRip- Русское название: Человек-паук
Оригинальное название: Spider-man
Год выпуска: 2002
Жанр: Фантастика, Боевик, Приключения
Описание фильма:
Еще вчера Питер Паркер был обычным школьником, которого все считали неудачником и занудой, но в один прекрасный день с ним происходит чудо. Питера кусает паук-мутант, после чего с нескладным юношей происходит фантастическая метаморфоза!
Невероятным образом обостряются все его чувства. Он обретает огромную силу и ловкость, а главное, умение лазать по стенам и выбрасывать прочную как сталь паутину! Так Питер начинает новую жизнь в образе таинственного Человека-паука, спасителя людей и грозы преступного мира.
Но там, где есть супергерой, рано или поздно всегда объявляется и суперзлодей. И вскоре Человеку-пауку придется сразиться с Зеленым Гоблином — терроризирующим город монстром на летающем глайдере. В этой великой битве решится не только их судьба, но и судьбы тысяч жителей города…
Режиссер: Сэм Рэйми
Актеры: Тоби Магуайр, Уиллем Дефо, Кирстен Данст, Джеймс Франко, Клифф Робертсон, Розмари Харрис, Дж.К. Симмонс
Продолжительность: 1:59;54
Перевод: Дублированный
Автор перевода: Невафильм

Дата мировой премьеры: 30 апреля 2002
Дата российской премьеры: 1 мая 2002
Видеокодек: Xvid
Битрейт видео: ~1 337 Kbps
Размер кадра: 704*384
Качество видео: HDRip
Аудиокодек: AC3
Битрейт аудио: 384 Kbps
Каналы аудио: 6 channels
Сэмпл: Ссылка

MediaInfo

General
Complete name : E:\Downloads\Spider-man 1,2,3\Spider_man.avi
Format : AVI
Format/Info : Audio Video Interleave
File size : 1.45 GiB
Duration : 1h 59mn
Overall bit rate : 1 731 Kbps
Movie name : Spider-man 1 2002
Director : Petey
Genre : Fantasy
Writing application : VirtualDubMod 1.5.10.2 (build 2540/release)
Writing library : VirtualDubMod build 2540/release
Original source form/Name : Movie
Video
ID : 0
Format : MPEG-4 Visual
Format profile : Advanced Simple@L5
Format settings, BVOP : 1
Format settings, QPel : No
Format settings, GMC : No warppoints
Format settings, Matrix : Default (MPEG)
Codec ID : XVID
Codec ID/Hint : XviD
Duration : 1h 59mn
Bit rate : 1 337 Kbps
Width : 704 pixels
Height : 384 pixels
Display aspect ratio : 16:9
Frame rate : 23.976 fps
Color space : YUV
Chroma subsampling : 4:2:0
Bit depth : 8 bits
Scan type : Progressive
Compression mode : Lossy
Bits/(Pixel*Frame) : 0.206
Stream size : 1.12 GiB (77%)
Writing library : XviD 1.2.1 (UTC 2008-12-04)
Audio
ID : 1
Format : AC-3
Format/Info : Audio Coding 3
Mode extension : CM (complete main)
Codec ID : 2000
Duration : 1h 59mn
Bit rate mode : Constant
Bit rate : 384 Kbps
Channel(s) : 6 channels
Channel positions : Front: L C R, Side: L R, LFE
Sampling rate : 48.0 KHz
Bit depth : 16 bits
Compression mode : Lossy
Stream size : 329 MiB (22%)
Alignment : Split accross interleaves
Interleave, duration : 42 ms (1.00 video frame)
Interleave, preload duration : 500 ms
Скриншоты:
-Человек-паук 2 / Spider-man 2 (2004) HDRip- Русское название: Человек-паук 2
Оригинальное название: Spider-man 2
Год выпуска: 2004
Жанр: Фантастика, Боевик, Приключения
Описание фильма:
С момента событий, произошедших в первом фильме, прошло два года. Тихоня Питер Паркер сталкивается с новыми проблемами: он борется со своим «даром и проклятьем», отчаянно пытаясь балансировать на грани двух своих жизней: метающего паутину супергероя Человека-Паука и обычного студента колледжа…
Мучимый своими секретами, Питер понимает, что его отношения со всеми, кто ему дорог, в опасности или заходят в тупик. Его любовь к Мэри Джейн становится еще сильнее, обостряемая порывом Питера раскрыть ей свой секрет и признаться в любви. Дружба с Гарри осложняется горечью молодого Осборна по умершему отцу и всё большим желанием отомстить Человеку-Пауку.
Даже любимая тетушка Мэй, у которой были нелегкие времена после смерти дяди Бена, начинает что-то подозревать насчет своего племянника. Жизнь Питера становится еще более сложной, когда он сталкивается с новым суперзлодеем — доктором Отто Октавиусом. Питер должен использовать все свои суперспособности, чтобы одолеть этого жестокого безумца с восемью конечностями…
Режиссер: Сэм Рэйми
Актеры: Тоби Магуайр, Кирстен Данст, Джеймс Франко, Альфред Молина, Розмари Харрис, Дж.К. Симмонс, Донна Мерфи
Продолжительность: 2:06;09
Перевод: Дублированный
Автор перевода: Невафильм

Дата мировой премьеры: 30 июня 2004
Дата российской премьеры: 30 июня 2004
Дата выхода DVD релиза: 28 октября 2010
Видеокодек: Xvid
Битрейт видео: ~1 254 Kbps
Размер кадра: 704*304
Качество видео: HDRip
Аудиокодек: AC3
Битрейт аудио: 384 Kbps
Каналы аудио: 6 channels
Сэмпл: Ссылка

MediaInfo

General
Complete name : E:\Downloads\Spider-man 1,2,3\Spider_man_2.avi
Format : AVI
Format/Info : Audio Video Interleave
File size : 1.45 GiB
Duration : 2h 6mn
Overall bit rate : 1 648 Kbps
Movie name : Spider-man 2 2004
Director : Petey
Genre : Fantasy
Writing application : VirtualDubMod 1.5.10.2 (build 2540/release)
Writing library : VirtualDubMod build 2540/release
Original source form/Name : Movie
Video
ID : 0
Format : MPEG-4 Visual
Format profile : Advanced Simple@L5
Format settings, BVOP : 1
Format settings, QPel : No
Format settings, GMC : No warppoints
Format settings, Matrix : Default (MPEG)
Codec ID : XVID
Codec ID/Hint : XviD
Duration : 2h 6mn
Bit rate : 1 254 Kbps
Width : 704 pixels
Height : 304 pixels
Display aspect ratio : 2.35:1
Frame rate : 23.976 fps
Color space : YUV
Chroma subsampling : 4:2:0
Bit depth : 8 bits
Scan type : Progressive
Compression mode : Lossy
Bits/(Pixel*Frame) : 0.244
Stream size : 1.11 GiB (76%)
Writing library : XviD 1.2.1 (UTC 2008-12-04)
Audio
ID : 1
Format : AC-3
Format/Info : Audio Coding 3
Mode extension : CM (complete main)
Codec ID : 2000
Duration : 2h 6mn
Bit rate mode : Constant
Bit rate : 384 Kbps
Channel(s) : 6 channels
Channel positions : Front: L C R, Side: L R, LFE
Sampling rate : 48.0 KHz
Bit depth : 16 bits
Compression mode : Lossy
Stream size : 347 MiB (23%)
Alignment : Split accross interleaves
Interleave, duration : 42 ms (1.00 video frame)
Interleave, preload duration : 500 ms
Скриншоты:
-Человек-паук 3: Враг в отражении / Spider-man 3 (2007) HDRip- Русское название: Человек-паук 3: Враг в отражении
Оригинальное название: Spider-man 3
Год выпуска: 2007
Жанр: Фантастика, Боевик, Приключения
Описание фильма:
Прошло пять лет с тех пор, как Питер осознал, что «с Великой силой приходит Великая ответственность!», и три года с тех пор, как он отказался быть борцом за справедливость. Но сейчас кажется, Питер прекрасно научился жить несколькими жизнями. Он хорошо учится, Нью-Йорк признал его героем, отношения с Мэри Джейн прочные. Питер даже намеревается сделать ей предложение!
Но к сожалению, его лучший друг Гарри Озборн по-прежнему считает, что именно Человек-паук несет ответственность за безвременную кончину его отца. Гарри намеревается отомстить ему в образе Нового Гоблина. В то же самое время на криминальной сцене Нью-Йорка появляется другой могущественный суперзлодей, известный как Песочный Человек.
Когда Человек-паук надевает таинственный черный костюм, его темная, более мстительная сторона полностью поглощает его. Эти трансформации заставляют его встретиться с самым сильным противником ? с самим собой…
Режиссер: Сэм Рэйми
Актеры: Тоби Магуайр, Кирстен Данст, Джеймс Франко, Томас Хейден, Чёрч Тофер, Грейс Брайс, Даллас Ховард, Розмари Харрис
Продолжительность: 2:17;40
Перевод: Дублированный
Автор перевода: Невафильм

Дата мировой премьеры: 16 апреля 2007
Дата российской премьеры: 3 мая 2007
Дата выхода DVD релиза: 3 мая 2007
Видеокодек: Xvid
Битрейт видео: ~1 110 Kbps
Размер кадра: 704*304
Качество видео: HDRip
Аудиокодек: AC3
Битрейт аудио: 384 Kbps
Каналы аудио: 6 channels
Сэмпл: Ссылка

MediaInfo

General
Complete name : E:\Downloads\Spider-man 1,2,3\Spider_man_3.avi
Format : AVI
Format/Info : Audio Video Interleave
File size : 1.45 GiB
Duration : 2h 17mn
Overall bit rate : 1 503 Kbps
Movie name : Spider-man 3 2007
Director : Petey
Genre : Fantasy
Writing application : VirtualDubMod 1.5.10.2 (build 2540/release)
Writing library : VirtualDubMod build 2540/release
Original source form/Name : Movie
Video
ID : 0
Format : MPEG-4 Visual
Format profile : Advanced Simple@L5
Format settings, BVOP : 1
Format settings, QPel : No
Format settings, GMC : No warppoints
Format settings, Matrix : Default (MPEG)
Codec ID : XVID
Codec ID/Hint : XviD
Duration : 2h 17mn
Bit rate : 1 110 Kbps
Width : 704 pixels
Height : 304 pixels
Display aspect ratio : 2.35:1
Frame rate : 23.976 fps
Color space : YUV
Chroma subsampling : 4:2:0
Bit depth : 8 bits
Scan type : Progressive
Compression mode : Lossy
Bits/(Pixel*Frame) : 0.216
Stream size : 1.07 GiB (74%)
Writing library : XviD 1.2.1 (UTC 2008-12-04)
Audio
ID : 1
Format : AC-3
Format/Info : Audio Coding 3
Mode extension : CM (complete main)
Codec ID : 2000
Duration : 2h 17mn
Bit rate mode : Constant
Bit rate : 384 Kbps
Channel(s) : 6 channels
Channel positions : Front: L C R, Side: L R, LFE
Sampling rate : 48.0 KHz
Bit depth : 16 bits
Compression mode : Lossy
Stream size : 378 MiB (26%)
Alignment : Split accross interleaves
Interleave, duration : 42 ms (1.00 video frame)
Interleave, preload duration : 500 ms
Скриншоты:

[Цитировать]



Показать сообщения:    

Текущее время: 11-Дек 11:09

Часовой пояс: UTC + 3


Вы не можете начинать темы
Вы не можете отвечать на сообщения
Вы не можете редактировать свои сообщения
Вы не можете удалять свои сообщения
Вы не можете голосовать в опросах
Вы не можете прикреплять файлы к сообщениям
Вы не можете скачивать файлы

!ВНИМАНИЕ!
Сайт не предоставляет электронные версии произведений, а занимается лишь коллекционированием и каталогизацией ссылок, присылаемых и публикуемых на форуме нашими читателями. Если вы являетесь правообладателем какого-либо представленного материала и не желаете, чтобы ссылка на него находилась в нашем каталоге, свяжитесь с нами, и мы незамедлительно удалим ее. Файлы для обмена на трекере предоставлены пользователями сайта, и администрация не несет ответственности за их содержание. Просьба не заливать файлы, защищенные авторскими правами, а также файлы нелегального содержания!