[ Сегодня идет свободное скачивание без начисления Download ]


Статистика раздачи
Нет
 
   
 
Top  
 
 
[sh]Большой Стэн / Big Stan[/sh]
[gposter=right]http://fotohost.kz/images/2012/11/24/Jr7p.jpg[/gposter]
Год выпуска: 2007
Страна: США
Производство:Crystal Sky Pictures
Жанр: боевик, комедия
Режиссер: Роб Шнайдер / Rob Schneider
В ролях: Роб Шнайдер, Дэвид Кэррадайн, Дженнифер Моррисон, Скотт Уилсон, Ричард Кайнд, Сэлли Кёркленд, М. Эммет Уолш, Генри Гибсон, Джексон Рэтбоун, Кевин Гейдж-Перевод: Профессиональный (полное дублирование)
Субтитры: Отсутствуют
Описание: Стэн в панике — его ждет срок за мошенничество. И его очень пугает надвигающееся тюремное заключение. Чтобы обезопасить себя от разного рода неожиданностей, Стэн обращается за помощью к Мастеру боевых искусств, который сможет научить его паре приемов.- -Качество: BDRip-AVC
Продолжительность: 01:49:07
Формат: MKV
Аудио кодек: MP3
Видео: 720x384 (1.875); 23.976 fps; ~768 kb/s; 0.116 bit/pixel
Аудио: 48 KHz; MP3; 2 channels; ~129 kb/s total

Media Info

General
      Unique ID : 228393738050036198662591874921487567395 (0xABD308AF1E90AFF5925DC5EE6F128A23)
      Format : Matroska
      File size : 702 MiB
      Duration : 1h 49mn
      Overall bit rate : 899 Kbps
      Encoded date : UTC 2009-11-17 05:59:09
      Writing application : mkvmerge v2.9.7 ('Tenderness') built on Jul  1 2009 18:43:35
      Writing library : libebml v0.7.7 + libmatroska v0.8.1
   Video #1
      ID : 1
      Format : AVC
      Format/Info : Advanced Video Codec
      Format profile : High@L3.1
      Format settings, CABAC : Yes
      Format settings, ReFrames : 16 frames
      Codec ID : V_MPEG4/ISO/AVC
      Duration : 1h 49mn
      Bit rate : 768 Kbps
      Width : 720 pixels
      Height : 384 pixels
      Display aspect ratio : 1.875
      Frame rate : 23.976 fps
      Color space : YUV
      Chroma subsampling : 4:2:0
      Bit depth : 8 bits
      Scan type : Progressive
      Bits/(Pixel*Frame) : 0.116
      Stream size : 587 MiB (84%)
      Title : Большой Стэн [Big.Stan.2007.D.RP4.ALCO][alco.rampage.ru]
      Writing library : x264 core 68 r1183M f21daff
      Encoding settings : cabac=1 / ref=16 / deblock=1:-1:-1 / analyse=0x3:0x133 / me=tesa / subme=9 / psy_rd=1.0:0.0 / mixed_ref=1 / me_range=32 / chroma_me=1 / trellis=2 / 8x8dct=1 / cqm=0 / deadzone=21,11 / chroma_qp_offset=-4 / threads=6 / nr=0 / decimate=0 / mbaff=0 / bframes=4 / b_pyramid=1 / b_adapt=2 / b_bias=0 / direct=3 / wpredb=1 / keyint=250 / keyint_min=25 / scenecut=40 / rc=2pass / bitrate=768 / ratetol=1.0 / qcomp=0.60 / qpmin=10 / qpmax=51 / qpstep=4 / cplxblur=20.0 / qblur=0.5 / ip_ratio=1.40 / pb_ratio=1.30 / aq=1:1.00 / zones=150626,156958,q=40
      Language : English
   Audio #2
      ID : 2
      Format : MPEG Audio
      Format version : Version 1
      Format profile : Layer 3
      Mode : Joint stereo
      Mode extension : MS Stereo
      Codec ID : A_MPEG/L3
      Codec ID/Hint : MP3
      Duration : 1h 49mn
      Bit rate mode : Variable
      Bit rate : 129 Kbps
      Nominal bit rate : 136 Kbps
      Channel(s) : 2 channels
      Sampling rate : 48.0 KHz
      Compression mode : Lossy
      Delay relative to video : 750ms
      Stream size : 101 MiB (14%)
      Title : Большой Стэн [Big.Stan.2007.D.RP4.ALCO][alco.rampage.ru]
      Writing library : LAME3.98r
      Encoding settings : -m j -V 4 -q 3 -lowpass 17 --abr 136
      Language : Russian

Скриншоты





Последний раз редактировалось: _Prince_ (2012-11-24 13:41), всего редактировалось 1 раз

[Цитировать]

Тех.дан по Видео и Аудио исправте
[sh]Например:[/sh] 720x304 (16:9), 23,976 fps, XviD ~1456 kbps avg, 0,263 bit/pixel
[sh]Например[/sh]: 48 kHz, AC3, 3/2 (L,C,R,l,r) + LFE ch, ~448.00 kbps avg

[Цитировать]



Показать сообщения:    

Текущее время: 09-Дек 04:59

Часовой пояс: UTC + 3


Вы не можете начинать темы
Вы не можете отвечать на сообщения
Вы не можете редактировать свои сообщения
Вы не можете удалять свои сообщения
Вы не можете голосовать в опросах
Вы не можете прикреплять файлы к сообщениям
Вы не можете скачивать файлы

!ВНИМАНИЕ!
Сайт не предоставляет электронные версии произведений, а занимается лишь коллекционированием и каталогизацией ссылок, присылаемых и публикуемых на форуме нашими читателями. Если вы являетесь правообладателем какого-либо представленного материала и не желаете, чтобы ссылка на него находилась в нашем каталоге, свяжитесь с нами, и мы незамедлительно удалим ее. Файлы для обмена на трекере предоставлены пользователями сайта, и администрация не несет ответственности за их содержание. Просьба не заливать файлы, защищенные авторскими правами, а также файлы нелегального содержания!