[ Сегодня идет свободное скачивание без начисления Download ]


Статистика раздачи
Нет
 
   
 
Top  
 
 
-Дом с призраками / House Hunting (2013) WEB-DLRip- Русское название: Дом с призраками
Оригинальное название: House Hunting
Производство: США
Год выпуска: 2013
Жанр: Триллер
Перевод: Любительский (одноголосый) [Хихикающий доктор]
Режиссер: Эрик Херт
Актеры: Марк Сингер, Арт ЛаФлёр, Хэйли Дюмон, Пол МакГилл, Ребека Кеннеди, Джеми Вэнс, Джон Коббб, Эмма Рэйн Лайл, Бриджет Гарвуд и др.
Описание фильма: Две семьи в день открытых дверей и в надежде найти дома их мечты,посещают некий таинственный дом . Но после того, как они входят внутрь, их мечты становится адским кошмаром, когда они понимают, что каждая попытка уехать ведет их назад, к парадной двери. Попавших в это чистилище семьи, преследует бывший владелец пустынного дома, который заявляет, что только одна из этих двух семей сможет назвать этот дом своим.

Дата мировой премьеры: 1 февраля 2013
Продолжительность: 01:42:35
Качество видео: WEB-DLRip
Видеокодек: XviD
Битрейт видео: ~1673 Kbps
Размер кадра: 720х304
Аудио: MP3, 2 ch, 128.00 kbps, 44.100 kHz-

Медиа Инфо

General
Complete name                            : H:\...\House.Hunting.2013.Xixidok.avi
Format                                   : AVI
Format/Info                              : Audio Video Interleave
File size                                : 1.30 GiB
Duration                                 : 1h 42mn
Overall bit rate                         : 1 811 Kbps
Writing application                      : VirtualDubModRus 1.5.10.2 (build 2542/release)
Writing library                          : VirtualDubMod build 2542/release
Video
ID                                       : 0
Format                                   : MPEG-4 Visual
Format profile                           : Advanced Simple@L5
Format settings, BVOP                    : 2
Format settings, QPel                    : No
Format settings, GMC                     : No warppoints
Format settings, Matrix                  : Default (H.263)
Muxing mode                              : Packed bitstream
Codec ID                                 : XVID
Codec ID/Hint                            : XviD
Duration                                 : 1h 42mn
Bit rate                                 : 1 673 Kbps
Width                                    : 720 pixels
Height                                   : 304 pixels
Display aspect ratio                     : 2.35:1
Frame rate                               : 23.976 fps
Color space                              : YUV
Chroma subsampling                       : 4:2:0
Bit depth                                : 8 bits
Scan type                                : Progressive
Compression mode                         : Lossy
Bits/(Pixel*Frame)                       : 0.319
Stream size                              : 1.20 GiB (92%)
Writing library                          : XviD 64
Audio
ID                                       : 1
Format                                   : MPEG Audio
Format version                           : Version 1
Format profile                           : Layer 3
Codec ID                                 : 55
Codec ID/Hint                            : MP3
Duration                                 : 1h 42mn
Bit rate mode                            : Constant
Bit rate                                 : 128 Kbps
Channel(s)                               : 2 channels
Sampling rate                            : 44.1 KHz
Compression mode                         : Lossy
Stream size                              : 93.9 MiB (7%)
Alignment                                : Split accross interleaves
Interleave, duration                     : 42 ms (1.00 video frame)
Interleave, preload duration             : 500 ms
-Скриншоты:
-Время раздачи: 24/7 (до первых сидов, далее по возможности)

[Цитировать]

Топик был перенесен из форума Новинки кинопроката в форум Триллер
Henkok



Показать сообщения:    

Текущее время: 24-Фев 11:07

Часовой пояс: UTC + 3


Вы не можете начинать темы
Вы не можете отвечать на сообщения
Вы не можете редактировать свои сообщения
Вы не можете удалять свои сообщения
Вы не можете голосовать в опросах
Вы не можете прикреплять файлы к сообщениям
Вы не можете скачивать файлы

!ВНИМАНИЕ!
Сайт не предоставляет электронные версии произведений, а занимается лишь коллекционированием и каталогизацией ссылок, присылаемых и публикуемых на форуме нашими читателями. Если вы являетесь правообладателем какого-либо представленного материала и не желаете, чтобы ссылка на него находилась в нашем каталоге, свяжитесь с нами, и мы незамедлительно удалим ее. Файлы для обмена на трекере предоставлены пользователями сайта, и администрация не несет ответственности за их содержание. Просьба не заливать файлы, защищенные авторскими правами, а также файлы нелегального содержания!