[ Сегодня идет свободное скачивание без начисления Download ]


Статистика раздачи
Нет
 
   
 
Top  
 
 
-Дом с призраками / House Hunting (2013) WEB-DLRip-«The American Nightmare.»- Русское название: Дом с призраками
Оригинальное название: House Hunting
Производство: США
Год выпуска: 2013
Жанр: Триллер
Перевод: Одноголосый закадровый, любительский [Хихикающий доктор]-Режиссер: Эрик Херт
Актеры: Марк Сингер, Арт ЛаФлёр, Хэйли Дюмон, Пол МакГилл, Ребека Кеннеди, Джеми Вэнс, Джон Коббб, Эмма Рэйн Лайл, Бриджет Гарвуд и др.-Описание фильма: Две семьи в день открытых дверей и в надежде найти дома их мечты,посещают некий таинственный дом . Но после того, как они входят внутрь, их мечты становится адским кошмаром, когда они понимают, что каждая попытка уехать ведет их назад, к парадной двери. Попавших в это чистилище семьи, преследует бывший владелец пустынного дома, который заявляет, что только одна из этих двух семей сможет назвать этот дом своим.- ] -Дата мировой премьеры: 1 февраля 2013-Продолжительность: 01:42:35
Качество видео: WEB-DLRip-Видеокодек: Xvid
Битрейт видео: ~805 Кбит/сек
Размер кадра: 720x320@720x321
Аудиокодек: MP3, 2 ch
Битрейт аудио: 128 Кбит/сек
Релиз группа:

MediaInfo

Общее
Полное имя : D:\Торрент раздача\House.Hunting.2013.WEB-DLRip.Xixidok.avi
Формат : AVI
Формат/Информация : Audio Video Interleave
Размер файла : 694 Мбайт
Продолжительность : 1 ч. 42 м.
Общий поток : 945 Кбит/сек
Программа кодирования : Lavf54.25.104
Видео
Идентификатор : 0
Формат : MPEG-4 Visual
Профиль формата : Simple@L3
Параметр BVOP формата : Нет
Параметр QPel формата : Нет
Параметр GMC формата : Без точки перехода
Параметр матрицы формата : Default (H.263)
Идентификатор кодека : XVID
Идентификатор кодека/Подсказка : XviD
Продолжительность : 1 ч. 42 м.
Битрейт : 805 Кбит/сек
Ширина : 720 пикселей
Высота : 320 пикселей
Соотношение сторон : 2,25:1
Частота кадров : 23,976 кадра/сек
Цветовое пространство : YUV
Субдискретизация насыщенности : 4:2:0
Битовая глубина : 8 бит
Тип развёртки : Прогрессивная
Метод сжатия : С потерями
Бит/(Пиксели*Кадры) : 0.146
Размер потока : 591 Мбайт (85%)
Библиотека кодирования : XviD 64
Аудио
Идентификатор : 1
Формат : MPEG Audio
Версия формата : Version 1
Профиль формата : Layer 3
Идентификатор кодека : 55
Идентификатор кодека/Подсказка : MP3
Продолжительность : 1 ч. 42 м.
Вид битрейта : Постоянный
Битрейт : 128 Кбит/сек
Каналы : 2 канала
Частота : 44,1 КГц
Метод сжатия : С потерями
Размер потока : 93,9 Мбайт (14%)
Выравнивание : Соединение по промежуткам
Продолжительность промежутка : 26 мс. (0,63 видеокадр)
Время предзагрузки промежутка : 26 мс.
Библиотека кодирования : LAME3.99.5
Скриншоты:

Время раздачи: 24/7

[Цитировать]

Топик был перенесен из форума Новинки кинопроката в форум Триллер
Henkok



Показать сообщения:    

Текущее время: 27-Фев 02:36

Часовой пояс: UTC + 3


Вы не можете начинать темы
Вы не можете отвечать на сообщения
Вы не можете редактировать свои сообщения
Вы не можете удалять свои сообщения
Вы не можете голосовать в опросах
Вы не можете прикреплять файлы к сообщениям
Вы не можете скачивать файлы

!ВНИМАНИЕ!
Сайт не предоставляет электронные версии произведений, а занимается лишь коллекционированием и каталогизацией ссылок, присылаемых и публикуемых на форуме нашими читателями. Если вы являетесь правообладателем какого-либо представленного материала и не желаете, чтобы ссылка на него находилась в нашем каталоге, свяжитесь с нами, и мы незамедлительно удалим ее. Файлы для обмена на трекере предоставлены пользователями сайта, и администрация не несет ответственности за их содержание. Просьба не заливать файлы, защищенные авторскими правами, а также файлы нелегального содержания!