[ Сегодня идет свободное скачивание без начисления Download ]


Статистика раздачи
Нет
 
   
 
Top  
 
 
ДжекпотArme Riddere«Рождественская комедия со смертельным исходом!»- Страна: Норвегия
Жанр: боевик, комедия, криминал
Год выпуска: 2011
Продолжительность: 01:25:35-Перевод: Профессиональный (многоголосый, закадровый) [лицензия]
Субтитры: нет
Режиссер: Магнус Мартенс / Magnus Martens
В ролях: Карре Хеллум, Мэдс Оусдаль, Хенрик Местад, Артур Бернинг, Андреас Каппелен, Лена Эллингсен, Фридтьов Сохейм, Петер Андерссон, Ян Гронли, Мари Блокхус, Анна Мари Оттерсен, Фредерик Петерссон-Описание: Испуганный и окровавленный, Оскар Свендсен просыпается с ружьём в руках в сомнительном заведении. Вокруг него 8 трупов и полиция, направляющаяся к нему. Оскар знает, что он невиновен. А всё началось с того, что четыре парня выиграли 1,7 миллиона в лотерею...- -

Доп. Информация

Сценарий: Магнус Мартенс / Magnus Martens, Ю Несбё / Jo Nesb?
Продюсер: Арье Хейденстром / Are Heidenstrom, Мартин Сандлэнд / Martin Sundland, Хьюго Хагеманн Фёскер / Hugo Hagemann F?sker, Ян Эрик Лангоен / Jan Erik Langoen, Томас Лёберг / Thomas L?berg
Оператор: Тронд Хёйнес / Trond H?ines
Композитор: Магнус Бейте / Magnus Beite
Сборы в России: $20 176
Мировая премьера: 2 декабря 2011
Релиз на DVD: 28 января 2013, «Новый Диск»
-Качество: HDRip (Исходник BDRip 720p)
Контейнер: AVI
Видео: XviD, 720x304 (2.35:1), 1828 kbps, 24 fps, 0,348 bpp
Аудио: AC3 / 5.1 / 48 kHz / 448 kbps / 16 bit-

Media Info

General
Complete name : F:\Dzhekpot.2011.P_HDRip.avi
Format : AVI
Format/Info : Audio Video Interleave
File size : 1.37 GiB
Duration : 1h 25mn
Overall bit rate : 2 286 Kbps
Movie name : Dzhekpot.2011.P.HDRip
Genre : Action, Comedy, Crime
Writing application : VirtualDubMod 1.5.10.2 (build 2540/release)
Original source form/Name : Movie
Video
ID : 0
Format : MPEG-4 Visual
Format profile : Advanced Simple@L5
Format settings, BVOP : 2
Format settings, QPel : No
Format settings, GMC : No warppoints
Format settings, Matrix : Custom
Codec ID : XVID
Codec ID/Hint : XviD
Duration : 1h 25mn
Bit rate : 1 828 Kbps
Width : 720 pixels
Height : 304 pixels
Display aspect ratio : 2.35:1
Frame rate : 24.000 fps
Color space : YUV
Chroma subsampling : 4:2:0
Bit depth : 8 bits
Scan type : Progressive
Compression mode : Lossy
Bits/(Pixel*Frame) : 0.348
Stream size : 1.09 GiB (80%)
Writing library : XviD 64
Audio
ID : 1
Format : AC-3
Format/Info : Audio Coding 3
Mode extension : CM (complete main)
Format settings, Endianness : Big
Codec ID : 2000
Duration : 1h 25mn
Bit rate mode : Constant
Bit rate : 448 Kbps
Channel(s) : 6 channels
Channel positions : Front: L C R, Side: L R, LFE
Sampling rate : 48.0 KHz
Bit depth : 16 bits
Compression mode : Lossy
Stream size : 274 MiB (20%)
Alignment : Split accross interleaves
Interleave, duration : 42 ms (1.00 video frame)
Interleave, preload duration : 500 ms

Скриншоты

[Цитировать]



Показать сообщения:    

Текущее время: 28-Мар 18:08

Часовой пояс: UTC + 6


Вы не можете начинать темы
Вы не можете отвечать на сообщения
Вы не можете редактировать свои сообщения
Вы не можете удалять свои сообщения
Вы не можете голосовать в опросах
Вы не можете прикреплять файлы к сообщениям
Вы не можете скачивать файлы

!ВНИМАНИЕ!
Сайт не предоставляет электронные версии произведений, а занимается лишь коллекционированием и каталогизацией ссылок, присылаемых и публикуемых на форуме нашими читателями. Если вы являетесь правообладателем какого-либо представленного материала и не желаете, чтобы ссылка на него находилась в нашем каталоге, свяжитесь с нами, и мы незамедлительно удалим ее. Файлы для обмена на трекере предоставлены пользователями сайта, и администрация не несет ответственности за их содержание. Просьба не заливать файлы, защищенные авторскими правами, а также файлы нелегального содержания!