[ Сегодня идет свободное скачивание без начисления Download ]


Статистика раздачи
Нет
 
   
 
Top  
 
 
Анна Каренина / Anna Karenina- Страна: Великобритания
Жанр: драма, мелодрама
Год выпуска: 2012
Продолжительность: 02:09:32-Перевод:
Профессиональный (дублированный)
Cубтитры: Русские (forced, full), Английские (*.srt)
Оригинальная аудиодорожка: Английский
-Режиссер: Джо Райт / Joe Wright-В ролях:
*Кира Найтли — Анна Каренина
*Джуд Лоу — Алексей Каренин
*Аарон Тейлор-Джонсон — Алексей Вронский
*Мэттью Макфейден — Стива Облонский
*Келли Макдональд — Долли Облонская
*Эмили Уотсон — графиня Лидия Ивановна
*Мишель Докери — княгиня Мягкая
-Описание: Встречая приехавшую из Петербурга мать, молодой блистательный офицер граф Вронский знакомится с женой влиятельного петербургского чиновника Анной Карениной. Огонь страсти вспыхивает мгновенно, но их любовь шокирует высшее общество. В мире, где правят предрассудки и стереотипы, ей придётся сделать поистине непростой выбор между семьёй и всепоглощающей страстью...-Рейтинг:
imdb.com - 6.9/10 (15,236)
kinopoisk.ru - 7.257 (18 586)
MPAA R - Детям до 17 лет обязательно присутствие родителей--Качество видео: BDRip-AVC
Формат видео: MKV // Sample //
Видео кодек: H.264
Аудио кодек: AC3
Видео: 1032x432 (2,40:1), 23.976 fps, x264 ~1598 kbps avg
Аудио: # 1 Russian AC3, 5.1 / 48 kHz / 384 kbps // Дубляж //
Аудио: # 2 English AC3, 5.1 / 48 kHz / 384 kbps // Оригинал //

MediaInfo


-

x264

x264 [info]: frame I:1421  Avg QP:17.39  size: 51829  PSNR Mean Y:46.56 U:49.01 V:50.07 Avg:47.33 Global:46.21
x264 [info]: frame P:36445 Avg QP:19.91  size: 18463  PSNR Mean Y:44.78 U:47.37 V:48.85 Avg:45.56 Global:44.09
x264 [info]: frame B:148490 Avg QP:22.56  size:  5425  PSNR Mean Y:44.15 U:46.99 V:48.75 Avg:44.99 Global:43.69
x264 [info]: consecutive B-frames:  1.4%  1.3%  4.2% 18.1% 14.4% 46.2%  5.3%  3.7%  1.6%  1.9%  0.8%  1.1%
x264 [info]: mb I  I16..4:  6.8% 77.9% 15.3%
x264 [info]: mb P  I16..4:  0.4%  8.4%  0.9%  P16..4: 30.6% 36.1% 12.1%  1.6%  0.1%    skip: 9.9%
x264 [info]: mb B  I16..4:  0.0%  0.6%  0.1%  B16..8: 35.2% 16.8%  2.4%  direct: 3.2%  skip:41.6%  L0:42.5% L1:47.1% BI:10.4%
x264 [info]: 8x8 transform intra:84.8% inter:63.5%
x264 [info]: coded y,uvDC,uvAC intra: 92.4% 89.9% 75.8% inter: 17.3% 14.1% 3.8%
x264 [info]: i16 v,h,dc,p: 16% 18%  6% 61%
x264 [info]: i8 v,h,dc,ddl,ddr,vr,hd,vl,hu:  9%  8%  6% 10% 15% 14% 13% 13% 12%
x264 [info]: i4 v,h,dc,ddl,ddr,vr,hd,vl,hu:  9%  8%  4%  9% 16% 16% 14% 12% 12%
x264 [info]: i8c dc,h,v,p: 44% 18% 17% 20%
x264 [info]: Weighted P-Frames: Y:4.0% UV:1.8%
x264 [info]: ref P L0: 47.1% 10.2% 18.5%  6.5%  5.6%  4.0%  3.7%  2.0%  2.1%  0.2%  0.0%
x264 [info]: ref B L0: 75.1% 11.6%  5.7%  2.8%  2.0%  1.7%  0.9%  0.3%
x264 [info]: ref B L1: 92.8%  7.2%
x264 [info]: SSIM Mean Y:0.9796126 (16.906db)
x264 [info]: PSNR Mean Y:44.296 U:47.081 V:48.782 Avg:45.118 Global:43.784 kb/s:1597.45
-
Общее
Уникальный идентификатор                 : 213472375867392283097727942083631005142 (0xA09948BAA9B3B6149DB24E4F67A63DD6)
Полное имя                               : D:\Anna.Karenina.2012.BDRip.AVC.All.Films.mkv
Формат                                   : Matroska
Версия формата                           : Version 2
Размер файла                             : 2,14 Гбайт
Продолжительность                        : 2 ч. 9 м.
Общий поток                              : 2368 Кбит/сек
Дата кодирования                         : UTC 2013-02-11 22:40:22
Программа кодирования                    : mkvmerge v5.6.0 ('Kenya Kane') built on Jun 29 2012 15:01:44
Библиотека кодирования                   : libebml v1.2.3 + libmatroska v1.3.0
Видео
Идентификатор                            : 1
Формат                                   : AVC
Формат/Информация                        : Advanced Video Codec
Профиль формата                          : [email protected]
Параметр CABAC формата                   : Да
Параметр ReFrames формата                : 9 кадров
Идентификатор кодека                     : V_MPEG4/ISO/AVC
Продолжительность                        : 2 ч. 9 м.
Битрейт                                  : 1552 Кбит/сек
Ширина                                   : 1032 пикселя
Высота                                   : 432 пикселя
Соотношение сторон                       : 2,40:1
Частота кадров                           : 23,976 кадра/сек
Цветовое пространство                    : YUV
Субдискретизация насыщенности            : 4:2:0
Битовая глубина                          : 8 бит
Тип развёртки                            : Прогрессивная
Бит/(Пиксели*Кадры)                      : 0.145
Размер потока                            : 1,40 Гбайт (66%)
Заголовок                                : Anna.Karenina.2012.BDRip.AVC.All.films
Библиотека кодирования                   : x264 core 128 r2216kMod 198a7ea
Настройки программы                      : cabac=1 / ref=9 / deblock=1:-3:-2 / analyse=0x3:0x133 / me=umh / subme=11 / psy=1 / fade_compensate=0.00 / psy_rd=0.95:0.05 / mixed_ref=1 / me_range=48 / chroma_me=1 / trellis=2 / 8x8dct=1 / cqm=0 / deadzone=21,11 / fast_pskip=1 / chroma_qp_offset=-3 / threads=6 / lookahead_threads=1 / sliced_threads=0 / nr=0 / decimate=1 / interlaced=0 / bluray_compat=0 / constrained_intra=0 / bframes=11 / b_pyramid=2 / b_adapt=2 / b_bias=0 / direct=1 / weightb=1 / open_gop=0 / weightp=2 / keyint=250 / keyint_min=23 / scenecut=40 / intra_refresh=0 / rc_lookahead=60 / rc=crf / mbtree=0 / crf=18.4000 / qcomp=0.60 / qpmin=10 / qpmax=51 / qpstep=4 / vbv_maxrate=20000 / vbv_bufsize=25000 / crf_max=0.0 / nal_hrd=none / ip_ratio=1.40 / pb_ratio=1.30 / aq=1:0.80 / zones=175150,186355,b=0.1
Язык                                     : English
Default                                  : Да
Forced                                   : Нет
Основные цвета                           : BT.709-5, BT.1361, IEC 61966-2-4, SMPTE RP177
Характеристики трансфера                 : BT.709-5, BT.1361
Коэффициенты матрицы                     : BT.709-5, BT.1361, IEC 61966-2-4 709, SMPTE RP177
Аудио #1
Идентификатор                            : 2
Формат                                   : AC-3
Формат/Информация                        : Audio Coding 3
Расширение режима                        : CM (complete main)
Параметр Endianness формата              : Big
Идентификатор кодека                     : A_AC3
Продолжительность                        : 2 ч. 9 м.
Вид битрейта                             : Постоянный
Битрейт                                  : 384 Кбит/сек
Каналы                                   : 6 каналов
Расположение каналов                     : Front: L C R, Side: L R, LFE
Частота                                  : 48,0 КГц
Битовая глубина                          : 16 бит
Метод сжатия                             : С потерями
Размер потока                            : 356 Мбайт (16%)
Заголовок                                : Профессиональный (дублированный) «Blu-ray CEE»
Язык                                     : Russian
Default                                  : Да
Forced                                   : Нет
Аудио #2
Идентификатор                            : 3
Формат                                   : AC-3
Формат/Информация                        : Audio Coding 3
Расширение режима                        : CM (complete main)
Параметр Endianness формата              : Big
Идентификатор кодека                     : A_AC3
Продолжительность                        : 2 ч. 9 м.
Вид битрейта                             : Постоянный
Битрейт                                  : 384 Кбит/сек
Каналы                                   : 6 каналов
Расположение каналов                     : Front: L C R, Side: L R, LFE
Частота                                  : 48,0 КГц
Битовая глубина                          : 16 бит
Метод сжатия                             : С потерями
Размер потока                            : 356 Мбайт (16%)
Заголовок                                : Оригинал
Язык                                     : English
Default                                  : Нет
Forced                                   : Нет
Текст #1
Идентификатор                            : 4
Формат                                   : UTF-8
Идентификатор кодека                     : S_TEXT/UTF8
Идентификатор кодека/Информация          : UTF-8 Plain Text
Заголовок                                : forced
Язык                                     : Russian
Default                                  : Да
Forced                                   : Нет
Текст #2
Идентификатор                            : 5
Формат                                   : UTF-8
Идентификатор кодека                     : S_TEXT/UTF8
Идентификатор кодека/Информация          : UTF-8 Plain Text
Заголовок                                : full
Язык                                     : Russian
Default                                  : Нет
Forced                                   : Нет
Текст #3
Идентификатор                            : 6
Формат                                   : UTF-8
Идентификатор кодека                     : S_TEXT/UTF8
Идентификатор кодека/Информация          : UTF-8 Plain Text
Заголовок                                : full
Язык                                     : English
Default                                  : Нет
Forced                                   : Нет
Текст #4
Идентификатор                            : 7
Формат                                   : UTF-8
Идентификатор кодека                     : S_TEXT/UTF8
Идентификатор кодека/Информация          : UTF-8 Plain Text
Заголовок                                : full SDH
Язык                                     : English
Default                                  : Нет
Forced                                   : Нет
Меню
00:00:00.000                             : en:00:00:00.000
00:05:36.294                             : en:00:05:36.294
00:11:42.076                             : en:00:11:42.076
00:19:59.156                             : en:00:19:59.156
00:25:26.900                             : en:00:25:26.900
00:32:40.750                             : en:00:32:40.750
00:39:52.056                             : en:00:39:52.056
00:46:59.108                             : en:00:46:59.108
00:54:00.362                             : en:00:54:00.362
01:00:36.258                             : en:01:00:36.258
01:07:13.529                             : en:01:07:13.529
01:14:52.071                             : en:01:14:52.071
01:22:30.070                             : en:01:22:30.070
01:27:00.549                             : en:01:27:00.549
01:31:49.379                             : en:01:31:49.379
01:36:12.976                             : en:01:36:12.976
01:42:42.907                             : en:01:42:42.907
01:47:57.971                             : en:01:47:57.971
01:55:04.523                             : en:01:55:04.523
02:01:45.924                             : en:02:01:45.924

Скриншоты

[Цитировать]

Топик был перенесен из форума Новинки кинопроката в форум Драма
Henkok



Показать сообщения:    

Текущее время: 06-Дек 17:13

Часовой пояс: UTC + 3


Вы не можете начинать темы
Вы не можете отвечать на сообщения
Вы не можете редактировать свои сообщения
Вы не можете удалять свои сообщения
Вы не можете голосовать в опросах
Вы не можете прикреплять файлы к сообщениям
Вы не можете скачивать файлы

!ВНИМАНИЕ!
Сайт не предоставляет электронные версии произведений, а занимается лишь коллекционированием и каталогизацией ссылок, присылаемых и публикуемых на форуме нашими читателями. Если вы являетесь правообладателем какого-либо представленного материала и не желаете, чтобы ссылка на него находилась в нашем каталоге, свяжитесь с нами, и мы незамедлительно удалим ее. Файлы для обмена на трекере предоставлены пользователями сайта, и администрация не несет ответственности за их содержание. Просьба не заливать файлы, защищенные авторскими правами, а также файлы нелегального содержания!