[ Today is free to download without increasing Download ]

DL-List and Torrent activity
Американская МэриAmerican Mary«Appearances Are Everything»- Страна: Канада
Жанр: ужасы, триллер
Год выпуска: 2012
Продолжительность: 01:42:24-Перевод: Любительский (двухголосый)[den904 и DeadSno]
Субтитры: нет
Режиссер: Джен Соска / Jen Soska, Сильвия Соска / Sylvia Soska
В ролях: Кэтрин Изабель, Антонио Цупо, Тристан Риск, Дэвид Ловгрен, Паула Линдберг, Клэй Ст. Томас, Джон Эммет Трэйси, Твэн Холлидэй, Нельсон Вонг, Сильвия Соска, Джен Соска, Пол Энтони-Описание: Фильм расскажет нам историю Мэри Мэнсон, которая работает в салоне, специализирующемся на модификации тела человека. Вскоре она понимает что ей нравится уродовать тела и клиентов салона ей становится мало. Она решает уродовать людей на свой вкус, без их согласия.- -

Доп. Информация

Сценарий: Джен Соска / Jen Soska, Сильвия Соска / Sylvia Soska
Продюсер: Джон А. Кертис / John A. Curtis, Ивэн Тайлор / Evan Tylor, Джен Соска / Jen Soska, Сильвия Соска / Sylvia Soska, Naeem Tyab
Оператор: Брайан Пирсон / Brian Pearson
Композитор: Питер Аллен / Peter Allen
Мировая премьера: 27 августа 2012
-Качество: HDRip (Исходник неизвестен)
Контейнер: AVI
Видео: XviD, 720x304 (2.35:1), 1641 kbps, 23,976 fps, 0,313 bpp
Аудио: AC3 / 5.1 / 48 kHz / 384 kbps / 16 bit-

Media Info

Complete name : F:\Amerikanskaja.mary.2012.L2.HDRip.1400.avi
Format : AVI
Format/Info : Audio Video Interleave
File size : 1.46 GiB
Duration : 1h 42mn
Overall bit rate : 2 035 Kbps
Writing application : VirtualDubMod (build 2540/release)
Writing library : VirtualDubMod build 2540/release
ID : 0
Format : MPEG-4 Visual
Format profile : Advanced Simple@L5
Format settings, BVOP : 2
Format settings, QPel : No
Format settings, GMC : No warppoints
Format settings, Matrix : Default (H.263)
Muxing mode : Packed bitstream
Codec ID : XVID
Codec ID/Hint : XviD
Duration : 1h 42mn
Bit rate : 1 641 Kbps
Width : 720 pixels
Height : 304 pixels
Display aspect ratio : 2.35:1
Frame rate : 23.976 fps
Color space : YUV
Chroma subsampling : 4:2:0
Bit depth : 8 bits
Scan type : Progressive
Compression mode : Lossy
Bits/(Pixel*Frame) : 0.313
Stream size : 1.17 GiB (81%)
Writing library : XviD 63
ID : 1
Format : AC-3
Format/Info : Audio Coding 3
Mode extension : CM (complete main)
Codec ID : 2000
Duration : 1h 42mn
Bit rate mode : Constant
Bit rate : 384 Kbps
Channel(s) : 6 channels
Channel positions : Front: L C R, Side: L R, LFE
Sampling rate : 48.0 KHz
Bit depth : 16 bits
Compression mode : Lossy
Stream size : 281 MiB (19%)
Alignment : Split accross interleaves
Interleave, duration : 42 ms (1.00 video frame)
Interleave, preload duration : 500 ms



Display posts:    

Current time is: 24-Oct 17:07

All times are UTC + 3

You cannot post new topics in this forum
You cannot reply to topics in this forum
You cannot edit your posts in this forum
You cannot delete your posts in this forum
You cannot vote in polls in this forum
You cannot attach files in this forum
You cannot download files in this forum

The site does not give electronic versions of products, and is engaged only in a collecting and cataloguing of the references sent and published at a forum by our readers. If you are the legal owner of any submitted material and do not wish that the reference to it was in our catalogue, contact us and we shall immediately remove her. Files for an exchange on tracker are given by users of a site, and the administration does not bear the responsibility for their maintenance. The request to not fill in the files protected by copyrights, and also files of the illegal maintenance!