[ Сегодня идет свободное скачивание без начисления Download ]


Статистика раздачи
Нет
 
   
 
Top  
 
 
ЕваИскусственный разум Год выпуска: 2011
Страна: Испания
Жанр: фэнтези, драма, фантастика
Продолжительность: 01:34:43
Перевод: профессиональный многоголосый, закадровый
Оригинал : испанский
Cубтитры: русские, английские softsub (SRT)-Режиссер: Кике Маильо / Kike Maillo-В ролях:
Клаудия Вега, Марта Этура, Даниэль Брюль, Альберто Эмманн, Анн Кановас, Льюис Омар, Сара Роза, Манель Дуэсо, Она Касамигуэла, Питер Вайвз Ньюи, Джорди Диаз, Оскар Вальсекки, Бернат Саумелл, Хуан Кампавадаль, Харрис Гордон, Игнаси Мартин, Эстер Майло-Описание:
Алекс, известный инженер в сфере кибернетики, возвращается в Санта-Ирину, чтобы заняться необычным проектом для факультета Робототехники своего университета ? созданием робота-ребенка. В течение десяти лет, пока его не было в городе, жизнь для его брата Дэвида и девушки Ланы шла своим чередом: теперь они живут вместе и у них есть дочь Ева. Между Алексом и Евой сразу налаживаются хорошие отношения, и так получается, что Ева самым неожиданным образом меняет подход Алекса к его разработкам. Для них начинается путешествие, которое обещает интригующую кульминацию.--Награды:
Гойя, 2012 год
Победитель: Лучшая мужская роль второго плана (Льюис Омар), Лучший режиссер-дебютант (Кике Маильо), Лучшие спецэффекты
Номинации: Лучшая мужская роль (Даниэль Брюль), Лучший оригинальный сценарий, Лучшая работа оператора, Лучший звук, Лучший монтаж, Лучший оригинальный саундтрек, Лучшая работа художника-постановщика, Лучшее руководство производством, Лучший грим/причёски
-IMDB: 6.5/10 (3 403 votes)
Кинопоиск: 6.738 (3506)--Сэмпл--Качество видео: BDRip-AVC (спасибо Гном)
Формат: MKV
Видео кодек: H.264
Аудио кодек: AC3
Видео: 1136 x 484 (2.35 :1), 24.000 fps, 2528 Кбит/сек, 0.19 bit/pixel
Аудио 1: 48 kHz, AC3 Dolby Digital, 3/2 (L,C,R,l,r) + LFE ch, ~384 kbps многоголосый
Аудио 2: 48 kHz, AC3 Dolby Digital, 3/2 (L,C,R,l,r) + LFE ch, ~384 kbps оригинал

Скриншоты



MediaInfo | x264

x264

x264 [info]: frame I:1250 Avg QP:18.36 size: 64763
x264 [info]: frame P:25196 Avg QP:19.90 size: 25230
x264 [info]: frame B:109947 Avg QP:21.56 size: 9811
x264 [info]: consecutive B-frames: 1.4% 0.9% 4.0% 10.4% 14.8% 49.0% 9.0% 4.1% 3.4% 3.0%
x264 [info]: mb I I16..4: 6.9% 76.9% 16.1%
x264 [info]: mb P I16..4: 0.9% 6.9% 1.5% P16..4: 34.0% 41.6% 12.3% 0.0% 0.0% skip: 2.9%
x264 [info]: mb B I16..4: 0.1% 0.6% 0.2% B16..8: 41.0% 20.7% 3.4% direct: 5.3% skip:28.7% L0:44.5% L1:47.8% BI: 7.7%
x264 [info]: 8x8 transform intra:73.6% inter:59.3%
x264 [info]: direct mvs spatial:98.8% temporal:1.2%
x264 [info]: coded y,uvDC,uvAC intra: 83.6% 74.1% 41.1% inter: 27.4% 15.3% 0.6%
x264 [info]: i16 v,h,dc,p: 38% 22% 5% 35%
x264 [info]: i8 v,h,dc,ddl,ddr,vr,hd,vl,hu: 12% 6% 6% 11% 15% 14% 13% 12% 12%
x264 [info]: i4 v,h,dc,ddl,ddr,vr,hd,vl,hu: 36% 6% 5% 7% 10% 10% 9% 8% 8%
x264 [info]: i8c dc,h,v,p: 30% 33% 21% 16%
x264 [info]: Weighted P-Frames: Y:8.1% UV:4.3%
x264 [info]: ref P L0: 48.4% 5.7% 17.6% 8.2% 6.1% 4.7% 3.8% 2.2% 1.8% 1.4% 0.2% 0.0%
x264 [info]: ref B L0: 69.6% 14.1% 6.7% 3.3% 2.4% 1.8% 1.4% 0.5% 0.2%
x264 [info]: ref B L1: 91.7% 8.3%
General
Unique ID : 252870828355116081573807020119047392236 (0xBE3D2668F698709F999031C489DDCBEC)
Complete name : D:\Eva.Isskustvennyi razum.2011.BDRip-AVC.mkv
Format : Matroska
Format version : Version 2
File size : 2.18 GiB
Duration : 1h 34mn
Overall bit rate mode : Variable
Overall bit rate : 3 300 Kbps
Encoded date : UTC 2013-01-31 06:03:57
Writing application : mkvmerge v5.8.0 ('No Sleep / Pillow') built on Sep 2 2012 15:37:04
Writing library : libebml v1.2.3 + libmatroska v1.3.0
Video
ID : 1
Format : AVC
Format/Info : Advanced Video Codec
Format profile : High@L4.1
Format settings, CABAC : Yes
Format settings, ReFrames : 10 frames
Codec ID : V_MPEG4/ISO/AVC
Duration : 1h 34mn
Bit rate mode : Variable
Bit rate : 2 528 Kbps
Maximum bit rate : 40.0 Mbps
Width : 1 136 pixels
Height : 484 pixels
Display aspect ratio : 2.35:1
Frame rate : 24.000 fps
Color space : YUV
Chroma subsampling : 4:2:0
Bit depth : 8 bits
Scan type : Progressive
Bits/(Pixel*Frame) : 0.192
Stream size : 1.63 GiB (75%)
Writing library : x264 core 129 r2230 1cffe9f
Encoding settings : cabac=1 / ref=10 / deblock=1:-2:-2 / analyse=0x3:0x113 / me=umh / subme=11 / psy=1 / psy_rd=1.00:0.02 / mixed_ref=1 / me_range=48 / chroma_me=1 / trellis=2 / 8x8dct=1 / cqm=0 / deadzone=21,11 / fast_pskip=0 / chroma_qp_offset=-3 / threads=6 / lookahead_threads=1 / sliced_threads=0 / nr=0 / decimate=1 / interlaced=0 / bluray_compat=0 / constrained_intra=0 / bframes=9 / b_pyramid=2 / b_adapt=2 / b_bias=0 / direct=3 / weightb=1 / open_gop=0 / weightp=2 / keyint=240 / keyint_min=24 / scenecut=40 / intra_refresh=0 / rc=2pass / mbtree=0 / bitrate=2528 / ratetol=1.0 / qcomp=0.70 / qpmin=0 / qpmax=69 / qpstep=4 / cplxblur=20.0 / qblur=0.5 / ip_ratio=1.30 / pb_ratio=1.20 / aq=2:0.9
Default : Yes
Forced : No
Audio #1
ID : 2
Format : AC-3
Format/Info : Audio Coding 3
Mode extension : CM (complete main)
Codec ID : A_AC3
Duration : 1h 34mn
Bit rate mode : Constant
Bit rate : 384 Kbps
Channel(s) : 6 channels
Channel positions : Front: L C R, Side: L R, LFE
Sampling rate : 48.0 KHz
Bit depth : 16 bits
Compression mode : Lossy
Stream size : 260 MiB (12%)
Title : MVO R5
Language : Russian
Default : Yes
Forced : No
Audio #2
ID : 3
Format : AC-3
Format/Info : Audio Coding 3
Mode extension : CM (complete main)
Codec ID : A_AC3
Duration : 1h 34mn
Bit rate mode : Constant
Bit rate : 384 Kbps
Channel(s) : 6 channels
Channel positions : Front: L C R, Side: L R, LFE
Sampling rate : 48.0 KHz
Bit depth : 16 bits
Compression mode : Lossy
Stream size : 260 MiB (12%)
Title : Original
Language : Spanish
Default : No
Forced : No
Text #1
ID : 4
Format : UTF-8
Codec ID : S_TEXT/UTF8
Codec ID/Info : UTF-8 Plain Text
Title : Full
Language : Russian
Default : No
Forced : No
Text #2
ID : 5
Format : UTF-8
Codec ID : S_TEXT/UTF8
Codec ID/Info : UTF-8 Plain Text
Title : Full
Language : English
Default : No
Forced : No
Menu
00:00:00.000 : en:Chapter 01
00:04:18.791 : en:Chapter 02
00:14:38.583 : en:Chapter 03
00:21:01.125 : en:Chapter 04
00:29:47.500 : en:Chapter 05
00:33:58.625 : en:Chapter 06
00:46:53.750 : en:Chapter 07
00:57:15.916 : en:Chapter 08
01:08:54.208 : en:Chapter 09
01:15:26.500 : en:Chapter 10
01:21:17.583 : en:Chapter 11
01:30:25.458 : en:Chapter 12

[Цитировать]



Показать сообщения:    

Текущее время: 07-Дек 15:31

Часовой пояс: UTC + 3


Вы не можете начинать темы
Вы не можете отвечать на сообщения
Вы не можете редактировать свои сообщения
Вы не можете удалять свои сообщения
Вы не можете голосовать в опросах
Вы не можете прикреплять файлы к сообщениям
Вы не можете скачивать файлы

!ВНИМАНИЕ!
Сайт не предоставляет электронные версии произведений, а занимается лишь коллекционированием и каталогизацией ссылок, присылаемых и публикуемых на форуме нашими читателями. Если вы являетесь правообладателем какого-либо представленного материала и не желаете, чтобы ссылка на него находилась в нашем каталоге, свяжитесь с нами, и мы незамедлительно удалим ее. Файлы для обмена на трекере предоставлены пользователями сайта, и администрация не несет ответственности за их содержание. Просьба не заливать файлы, защищенные авторскими правами, а также файлы нелегального содержания!