[ Сегодня идет свободное скачивание без начисления Download ]


Статистика раздачи
Нет
 
   
 
Top  
 
 
-В ловушке времени / Timeline (2003) [720p] BDRip
«In 6 hours they'll be history!»
- Русское название: В ловушке времени
Оригинальное название: Timeline
Год выпуска: 2003
Жанр: Боевик, Приключения, Фэнтези-Описание фильма:
По мотивам бестселлера Майкла Крайтона.Группа археологов неожиданно узнает об опасном эксперименте по перемещению во времени, секретно проведенном одним из финансовых магнатов. Их возмущение возрастает, когда оказывается, что в результате эксперимента их любимый профессор попал в средневековую Францию! Уверенные в том, что их знаний о средневековой Европе будет достаточно, чтобы вернуть профессора живым и невредимым, они перемещаются в XIV век и попадают в гущу событий, основное из которых война. Смогут ли они спасти профессора в этом новом незнакомом мире?-Режиссер: Ричард Доннер
Актеры: Пол Уокер, Фрэнсис О’Коннор, Джерард Батлер, Билли Коннолли, Дэвид Тьюлис, Анна Фрил, Нил МакДонаф, Мэтт Крэвен, Итэн Эмбри, Майкл Шин, Ламбер Вильсон, Мартон Чокаш, Россиф Сазерленд, Стив Кэхэн, Давид Ла Эй, Ричард Биман, Патрик Сабонгуй, Майк Шуте, Джэйсон Мэрилл, Власта Врана, Марк Оливье, Джерри Мосс, Дэнни Бланко, Пол Туэрпе, Кэс Анвар, Стефани Биддл, Луис Деллар, Линн Эдамс, Кристиан Тессьер, Милли Трессьера, Эми Слоун, Райан Вулфф, Кристиан Пол, Мэриэн Колье-Продолжительность: 01:51:11
Перевод: Дублированный, многоголосый закадровый, одноголосый закадровый, двухголосый закадровый
Язык субтитров: Английские
Вид субтитров: Вшитые-
Релиз от: -Дата мировой премьеры: 19 ноября 2003
Дата российской премьеры: 29 апреля 2004, «UIP»-Видеокодек: MPEG-4 AVC/H.264
Битрейт видео: ~5591 Кбит/с
Размер кадра: 1280x548
Качество видео: BDRip [720p]
Аудио:
1. Русский: 48 kHz, AC3, 2/0 (L,R) ch, ~448.00 kbps avg |Дублированный, Премьер-Видео|
2. Русский: 48 kHz, AC3, 3/2 (L,C,R,l,r) + LFE ch, ~640.00 kbps avg |Многоголосый закадровый, R5|
3. Русский: 48 kHz, AC3, 3/2 (L,C,R,l,r) + LFE ch, ~640.00 kbps avg |Одноголосый закадровый, Ю.Живов|
4. Русский: 48 kHz, AC3, 2/0 (L,R) ch, ~192.00 kbps avg |Двухголосый закадровый, SDI Media|
5. Украинский: 48 kHz, AC3, 3/2 (L,C,R,l,r) + LFE ch, ~384 kbps avg |Многоголосый закадровый, переведенно и озвученно студией "Контакт" по заказу телеканала "1+1"|
6. Английский: 48 kHz, AC3, 3/2 (L,C,R,l,r) + LFE ch, ~640.00 kbps avg-

MediaInfo

General
Unique ID : 174335082317781831471357490951771435110 (0x8327B72D957147709607BA54FE1CB066)
Complete name : D:\Загрузки\Раздачи\Timeline.2003.720p.BluRay.4xRus.Ukr.Eng.HDCLUB.mkv
Format : Matroska
Format version : Version 4 / Version 2
File size : 6.63 GiB
Duration : 1h 51mn
Overall bit rate : 8 540 Kbps
Movie name : Timeline (2003)
Encoded date : UTC 2013-02-14 15:56:45
Writing application : mkvmerge v6.0.0 ('Coming Up For Air') built on Jan 20 2013 09:52:00
Writing library : libebml v1.3.0 + libmatroska v1.4.0
Video
ID : 1
Format : AVC
Format/Info : Advanced Video Codec
Format profile : [email protected]
Format settings, CABAC : Yes
Format settings, ReFrames : 8 frames
Codec ID : V_MPEG4/ISO/AVC
Duration : 1h 51mn
Bit rate : 5 591 Kbps
Width : 1 280 pixels
Height : 548 pixels
Display aspect ratio : 2.35:1
Frame rate : 25.000 fps
Color space : YUV
Chroma subsampling : 4:2:0
Bit depth : 8 bits
Scan type : Progressive
Bits/(Pixel*Frame) : 0.319
Stream size : 4.21 GiB (64%)
Title : Timeline (2003)
Writing library : x264 core 129 r2245 bc13772
Encoding settings : cabac=1 / ref=8 / deblock=1:-1:-1 / analyse=0x3:0x113 / me=umh / subme=10 / psy=1 / psy_rd=1.00:0.20 / mixed_ref=1 / me_range=32 / chroma_me=1 / trellis=2 / 8x8dct=1 / cqm=0 / deadzone=21,11 / fast_pskip=0 / chroma_qp_offset=-3 / threads=12 / lookahead_threads=2 / sliced_threads=0 / nr=0 / decimate=0 / interlaced=0 / bluray_compat=0 / constrained_intra=0 / bframes=6 / b_pyramid=2 / b_adapt=2 / b_bias=0 / direct=3 / weightb=1 / open_gop=0 / weightp=2 / keyint=250 / keyint_min=25 / scenecut=40 / intra_refresh=0 / rc_lookahead=40 / rc=2pass / mbtree=0 / bitrate=5591 / ratetol=1.0 / qcomp=0.60 / qpmin=0 / qpmax=69 / qpstep=4 / cplxblur=20.0 / qblur=0.5 / vbv_maxrate=50000 / vbv_bufsize=62500 / nal_hrd=none / ip_ratio=1.40 / pb_ratio=1.30 / aq=1:1.00
Language : English
Default : Yes
Forced : No
Audio #1
ID : 2
Format : AC-3
Format/Info : Audio Coding 3
Mode extension : CM (complete main)
Codec ID : A_AC3
Duration : 1h 51mn
Bit rate mode : Constant
Bit rate : 448 Kbps
Channel(s) : 2 channels
Channel positions : Front: L R
Sampling rate : 48.0 KHz
Bit depth : 16 bits
Compression mode : Lossy
Stream size : 356 MiB (5%)
Title : AC3 2 ch 448 kbps DUB (Premer-Video)
Language : Russian
Default : Yes
Forced : No
Audio #2
ID : 3
Format : AC-3
Format/Info : Audio Coding 3
Mode extension : CM (complete main)
Codec ID : A_AC3
Duration : 1h 51mn
Bit rate mode : Constant
Bit rate : 640 Kbps
Channel(s) : 6 channels
Channel positions : Front: L C R, Side: L R, LFE
Sampling rate : 48.0 KHz
Bit depth : 16 bits
Compression mode : Lossy
Stream size : 509 MiB (7%)
Title : AC3 6 ch 640 kbps MVO (R5)
Language : Russian
Default : No
Forced : No
Audio #3
ID : 4
Format : AC-3
Format/Info : Audio Coding 3
Mode extension : CM (complete main)
Codec ID : A_AC3
Duration : 1h 51mn
Bit rate mode : Constant
Bit rate : 640 Kbps
Channel(s) : 6 channels
Channel positions : Front: L C R, Side: L R, LFE
Sampling rate : 48.0 KHz
Bit depth : 16 bits
Compression mode : Lossy
Stream size : 509 MiB (7%)
Title : AC3 6 ch 640 kbps AVO (Jivov)
Language : Russian
Default : No
Forced : No
Audio #4
ID : 5
Format : AC-3
Format/Info : Audio Coding 3
Mode extension : CM (complete main)
Codec ID : A_AC3
Duration : 1h 51mn
Bit rate mode : Constant
Bit rate : 192 Kbps
Channel(s) : 2 channels
Channel positions : Front: L R
Sampling rate : 48.0 KHz
Bit depth : 16 bits
Compression mode : Lossy
Stream size : 153 MiB (2%)
Title : AC3 2 ch 192 kbps DVO (SDI Media)
Language : Russian
Default : No
Forced : No
Audio #5
ID : 6
Format : AC-3
Format/Info : Audio Coding 3
Mode extension : CM (complete main)
Codec ID : A_AC3
Duration : 1h 51mn
Bit rate mode : Constant
Bit rate : 384 Kbps
Channel(s) : 6 channels
Channel positions : Front: L C R, Side: L R, LFE
Sampling rate : 48.0 KHz
Bit depth : 16 bits
Compression mode : Lossy
Stream size : 305 MiB (4%)
Title : AC3 6 ch 384 kbps MVO (1+1)
Language : Ukrainian
Default : No
Forced : No
Audio #6
ID : 7
Format : AC-3
Format/Info : Audio Coding 3
Mode extension : CM (complete main)
Codec ID : A_AC3
Duration : 1h 51mn
Bit rate mode : Constant
Bit rate : 640 Kbps
Channel(s) : 6 channels
Channel positions : Front: L C R, Side: L R, LFE
Sampling rate : 48.0 KHz
Bit depth : 16 bits
Compression mode : Lossy
Stream size : 509 MiB (7%)
Title : AC3 6 ch 640 kbps Original
Language : English
Default : No
Forced : No
Text
ID : 8
Format : UTF-8
Codec ID : S_TEXT/UTF8
Codec ID/Info : UTF-8 Plain Text
Title : English
Language : English
Default : No
Forced : No
Menu
00:00:00.000 : en:Paper Doll
00:03:55.039 : en:Dig Site
00:08:54.640 : en:Clues From the Past
00:17:05.040 : en:Itc
00:22:32.880 : en:The Chance of a Lifetime
00:28:42.400 : en:1357 France
00:36:07.760 : en:Castlegard
00:42:52.960 : en:Prison Break
00:50:58.400 : en:Rescue
00:55:42.320 : en:Prophet or Fool
01:01:28.920 : en:Claire and Arnaut
01:08:05.560 : en:Fortifying La Roque
01:15:05.800 : en:The Tunnel
01:26:11.560 : en:A Place in History
01:32:08.600 : en:It's Me!
01:41:44.960 : en:The Sarcophagus

Из книги «3500 кинорецензий»

Сергей Кудрявцев 3.5/10
Фантастический историко-приключенческий фильм
На редкость точным оказалось соображение, высказанное одним из пользователей imdb.com: «Как бы я хотел вернуться назад во времени, чтобы получить два своих драгоценных часа!». Фильм признанного режиссёра Ричарда Доннера (он также был сопродюсером со своей женой Лорен Шулер), снятый по бестселлеру Майкла Крайтона, с треском провалился в американском прокате, не компенсировав и четверти потраченной суммы в размере $80 млн. И если в отношении «13-го воина», сравнительно недавней экранизации другого крайтоновского романа «Пожиратели мертвецов», предубеждение зрителей было, пожалуй, чрезмерным, то отказ воспринимать всерьёз ленту «Граница времени» (в нашем прокате — «В ловушке времени») даже делает им честь.
Поскольку эта работа весьма опытного Доннера (подзабыв во время просмотра о том, что именно он снял картину, уже не без изумления обнаруживаешь эту фамилию в финальных титрах) напоминает в большей степени… детскую приключенческую фантазию «Балбесы», поставленную им почти 20 лет назад и хотя бы с юмором. А тут невольный смех может возникнуть из-за несуразности воплощения на экране давно опробованной кинематографом идеи путешествия во времени сквозь эпохи.
Молодые американские археологи, занимающиеся во Франции раскопками около одного из замков XIV века, узнают о том, что их руководитель, профессор Джонстон, который отлучился на несколько дней якобы в служебную командировку, на самом-то деле, был заслан в давнее столетие некими учёными, проводящими секретные эксперименты после случайного обнаружения «временн?го коридора». Чтобы вызволить из прошлого так и не вернувшегося профессора, на шесть с лишним веков назад отправляются его юные последователи, оказываясь в средоточии военных баталий между англичанами и французами. Им тоже предстоит вынести немало испытаний и вновь очутиться в современности.
Если ещё как-то можно оправдать сюжетную натяжку с «затерявшимся в минувшем» пожилым археологом, то направление в трансвременн?ю экспедицию такого количества «спасателей», включая его сына Криса вместе с возлюбленной Кейт, а главное — нарушение принципа пространственно-временного континуума (например, Андре Марек предпочитает навсегда остаться в XIV столетии, полюбив местную аристократку Клер, которую избавляет от предназначенной ей участи), кажется наивной чепухой. Фантастическая лента о своеобразном «полёте в прошлое» фактически превращается в заурядный историко-приключенческий фильм, к тому же реализованный без особой фантазии, а порой глуповато и небрежно — вот так плоско и однобоко представляют американцы далёкую европейскую историю, на которую, собственно говоря, им наплевать.
2003
-Скриншоты:

Время раздачи: С 07:00 до 22:00

[Цитировать]



Показать сообщения:    

Текущее время: 05-Дек 21:39

Часовой пояс: UTC + 3


Вы не можете начинать темы
Вы не можете отвечать на сообщения
Вы не можете редактировать свои сообщения
Вы не можете удалять свои сообщения
Вы не можете голосовать в опросах
Вы не можете прикреплять файлы к сообщениям
Вы не можете скачивать файлы

!ВНИМАНИЕ!
Сайт не предоставляет электронные версии произведений, а занимается лишь коллекционированием и каталогизацией ссылок, присылаемых и публикуемых на форуме нашими читателями. Если вы являетесь правообладателем какого-либо представленного материала и не желаете, чтобы ссылка на него находилась в нашем каталоге, свяжитесь с нами, и мы незамедлительно удалим ее. Файлы для обмена на трекере предоставлены пользователями сайта, и администрация не несет ответственности за их содержание. Просьба не заливать файлы, защищенные авторскими правами, а также файлы нелегального содержания!