[ Сегодня идет свободное скачивание без начисления Download ]


Статистика раздачи
Нет
 
   
 
Top  
 
 
-Титаны - Дилогия: Битва Титанов / Clash of the Titans (2010), Гнев Титанов / Wrath of the Titans (2012) [1080p] BDRemux- --Битва Титанов / Clash of the Titans (2010) BDRemux
«Легенды оживают»
- Русское название: Битва Титанов
Оригинальное название: Clash of the Titans
Год выпуска: 2010
Страна: США
Жанр: Фантастика, Боевик, Приключения
Описание фильма: Персей, сын бога, воспитанный человеком, не смог защитить свою семью от Аида, мстительного повелителя подземного мира. Теперь ему уже нечего терять, и он добровольно соглашается возглавить опасную миссию, чтобы одержать победу над Аидом до того, как тот отберет власть у Зевса и выпустит демонов подземного царства на Землю.
Возглавляя отряд бесстрашных воинов, Персей отправляется в рискованное путешествие по лабиринту запретных миров. Чтобы победить в свирепой схватке с жуткими демонами и злобными чудовищами, противостоять злому року и стать хозяином своей судьбы, он должен осознать и принять свою божественную силу.
Режиссер: Луи Летерье
Актеры: Сэм Уортингтон, Лиам Нисон, Ральф Файнс, Джемма Артертон, Николас Хаулт, Дэнни Хьюстон, Изабелла Мико, Алекса Давалос, Натали Кокс, Мэдс Миккелсен, Ганс Мэтисон, Питер Постлетуэйт, Винсент Ригэн, Кая Скоделарио, Полли Уокер, Джейсон Флеминг
Продолжительность: 01:46:07
Перевод: Дублированный, Одноголосый закадровый (А. Гаврилов)
Язык субтитров: Русский (BD, Е. Воронин), английский (полные)
Вид субтитров: Вшитые, отключаемые-
Дата мировой премьеры: 1 апреля 2010
Дата российской премьеры: 8 апреля 2010, «Каро-Премьер»
Дата выхода DVD / Blu-Ray релиза: 24 августа 2010, «Юниверсал Пикчерс Рус»-Качество видео: BDRemux
Контейнер: MKV
Видеокодек: MPEG-4 AVC/H.264
Видео: 1920x1080, 23.976 fps, ~29,3 mb/s
Аудио:
1. Русский: AC3, 3/2 ch, ~ 448 kb/s / 16-bit |Дубляж c BD CEE|
2. Русский, DTS-HD MA, 5.1, 48 kHz, 4161 kbps, 24 bit, 6 каналов, (DTS Core: 5.1, 48 kHz, 1509 kbps, 24 bit) |Гаврилов|
3. Украинский: AC3, 3/2 ch, ~ 448 kb/s / 16-bit |Дубляж c BD CEE|
4. Английский, DTS-HD MA, 5.1, 48 kHz, 4135 kbps, 24 bit, (DTS Core: 5.1, 48 kHz, 1509 kbps, 24 bit) |Оригинал|
-Главы: имеются (с Blu-ray, все подписаны)

MediaInfo

Общее
Уникальный идентификатор : 233505679558738230345858048464176339689 (0xAFAB8EDC03E815159AF66CD05ED0DAE9)
Полное имя : R:\002\Титаны - дилогия (2010-2012) BDRemux.NNM-CLUB\Clash of the Titans (2010) BDRemux.NNM-CLUB.mkv
Формат : Matroska
Версия формата : Version 4 / Version 2
Размер файла : 25,2 Гбайт
Продолжительность : 1 ч. 46 м.
Режим общего битрейта : Переменный
Общий поток : 34,0 Мбит/сек
Название фильма : Clash of the Titans (2010) BDRemux.NNM-CLUB
Дата кодирования : UTC 2013-02-15 13:43:57
Программа кодирования : mkvmerge v6.0.0 ('Coming Up For Air') built on Jan 20 2013 09:52:00
Библиотека кодирования : libebml v1.3.0 + libmatroska v1.4.0
Видео
Идентификатор : 1
Формат : AVC
Формат/Информация : Advanced Video Codec
Профиль формата : High@L4.1
Параметр CABAC формата : Да
Параметр ReFrames формата : 3 кадра
Режим смешивания : Container profile=Unknown@0.0
Идентификатор кодека : V_MPEG4/ISO/AVC
Продолжительность : 1 ч. 46 м.
Вид битрейта : Переменный
Битрейт : 29,3 Мбит/сек
Максимальный битрейт : 40,0 Мбит/сек
Ширина : 1920 пикселей
Высота : 1080 пикселей
Соотношение сторон : 16:9
Режим частоты кадров : Постоянный
Частота кадров : 23,976 кадра/сек
Стандарт вещания : NTSC
Цветовое пространство : YUV
Субдискретизация насыщенности : 4:2:0
Битовая глубина : 8 бит
Тип развёртки : Прогрессивная
Бит/(Пиксели*Кадры) : 0.589
Размер потока : 21,7 Гбайт (86%)
Заголовок : Clash of the Titans (2010) BDRemux.NNM-CLUB
Язык : English
Default : Да
Forced : Нет
Аудио #1
Идентификатор : 2
Формат : AC-3
Формат/Информация : Audio Coding 3
Расширение режима : CM (complete main)
Параметр Endianness формата : Big
Идентификатор кодека : A_AC3
Продолжительность : 1 ч. 46 м.
Вид битрейта : Постоянный
Битрейт : 448 Кбит/сек
Каналы : 6 каналов
Расположение каналов : Front: L C R, Side: L R, LFE
Частота : 48,0 КГц
Битовая глубина : 16 бит
Метод сжатия : С потерями
Размер потока : 340 Мбайт (1%)
Заголовок : Дубляж, Blu-ray CEE - AC3
Язык : Russian
Default : Да
Forced : Нет
Аудио #2
Идентификатор : 3
Формат : DTS
Формат/Информация : Digital Theater Systems
Профиль формата : MA / Core
Идентификатор кодека : A_DTS
Продолжительность : 1 ч. 46 м.
Вид битрейта : Переменный
Битрейт : 1561 Кбит/сек / 1510 Кбит/сек
Каналы : 6 каналов
Расположение каналов : Front: L C R, Side: L R, LFE
Частота : 48,0 КГц
Битовая глубина : 24 бит
Метод сжатия : Без потерь / Lossy
Заголовок : AVO Gavrilov DTS-HD MA 5.1
Язык : Russian
Default : Нет
Forced : Нет
Аудио #3
Идентификатор : 4
Формат : AC-3
Формат/Информация : Audio Coding 3
Расширение режима : CM (complete main)
Параметр Endianness формата : Big
Идентификатор кодека : A_AC3
Продолжительность : 1 ч. 46 м.
Вид битрейта : Постоянный
Битрейт : 448 Кбит/сек
Каналы : 6 каналов
Расположение каналов : Front: L C R, Side: L R, LFE
Частота : 48,0 КГц
Битовая глубина : 16 бит
Метод сжатия : С потерями
Размер потока : 340 Мбайт (1%)
Заголовок : Дубляж, Blu-ray CEE - AC3
Язык : Ukrainian
Default : Нет
Forced : Нет
Аудио #4
Идентификатор : 5
Формат : DTS
Формат/Информация : Digital Theater Systems
Профиль формата : MA / Core
Идентификатор кодека : A_DTS
Продолжительность : 1 ч. 46 м.
Вид битрейта : Переменный
Битрейт : 1561 Кбит/сек / 1510 Кбит/сек
Каналы : 6 каналов
Расположение каналов : Front: L C R, Side: L R, LFE
Частота : 48,0 КГц
Битовая глубина : 24 бит
Метод сжатия : Без потерь / Lossy
Заголовок : Оригинал DTS-HD MA 5.1
Язык : English
Default : Нет
Forced : Нет
Текст #1
Идентификатор : 6
Формат : UTF-8
Идентификатор кодека : S_TEXT/UTF8
Идентификатор кодека/Информация : UTF-8 Plain Text
Заголовок : Полные
Язык : Russian
Default : Нет
Forced : Нет
Текст #2
Идентификатор : 7
Формат : UTF-8
Идентификатор кодека : S_TEXT/UTF8
Идентификатор кодека/Информация : UTF-8 Plain Text
Заголовок : Полные (Voronine)
Язык : Russian
Default : Нет
Forced : Нет
Текст #3
Идентификатор : 8
Формат : UTF-8
Идентификатор кодека : S_TEXT/UTF8
Идентификатор кодека/Информация : UTF-8 Plain Text
Заголовок : Полные
Язык : English
Default : Нет
Forced : Нет
Меню
00:00:00.000 : en:Seaward Sacrifice
00:05:39.839 : en:Zeus's Command
00:10:07.607 : en:Argos Destroyed
00:14:25.239 : en:As Calibos Suffers
00:20:58.632 : en:Playwright Ammon
00:26:06.148 : en:By the Gods
00:31:57.916 : en:Inside Joppa
00:38:19.547 : en:Spirit of Andromeda
00:47:02.820 : en:Pegasus
00:52:45.621 : en:No Mercy
00:59:20.307 : en:Swamp Clash
01:07:02.852 : en:Riddle of the Ring
01:13:17.268 : en:Hate and Love Declared
01:19:37.314 : en:Thetis Demands
01:26:01.114 : en:Caught By Calibos
01:31:52.090 : en:Bubo the Owl
01:35:23.176 : en:Steep Climb

Знаете ли Вы, что...

Разработке ремейка был дан старт в 2002 году под руководством продюсера Адама Шредера. На несколько лет работа полностью застопорилась до тех пор, когда в 2006 году продюсером стал Бэзил Иваник, а переработкой сценария занялся Трэвис Бичем.
Занявший в 2007 году место режиссёра Стивен Норрингтон после долгих сомнений всё же предпочёл выбыть из проекта. При нём работой над сценарием занимался Лоренс Кэздан. Заменивший Стивена Норрингтона Луис Летерье сам обратился к нему в июне 2008 года через их общего агента, поскольку в детстве был большим поклонником оригинальной картины.
Режиссёр Луис Летерье хотел, чтобы в работе над картиной принял то или иное участие занимавшийся постановкой спецэффектов в оригинальном фильме 1981 года Рэй Харрихаузен. Давно уже полностью отошедшего от дел легендарного мастера убедить не удалось.
Лиам Нисон согласился на роль в фильме, поскольку его сыновья являются большими любителями греческой мифологии.
Сцены возле вулкана снимались в сланцевом карьере Динорвик в северной части Уэльса. Работа на карьере была прекращена в 1969 году, после чего он неоднократно избирался в качестве места для съёмок. В 1987 году там снималась кинолента фэнтези «Виллоу» (1988), а затем уже в 90-х были сняты несколько сцен боевика «Уличный боец» (1994).
Первоначально американская премьера «Битвы Титанов» была намечена на 26 марта 2010 года. Огромный успех «Аватара» (2009) побудил киностудию попробовать, как будет смотреться фильм в трёхмерном формате. После того как тестовые просмотры прошли с огромным успехом, в конце января 2010 года было принято решение о переводе фильма полностью в 3-D, а дата выхода в прокат в связи с этим была сдвинута на неделю на 3 апреля.
Акрисий был отцом, а не мужем Данаи, и посадил её вместе с сыном (Персеем) в ящик и выбросил в море не по злобе, а потому, что ему была предсказана смерть от руки его внука. Персей спасся вместе с матерью.
Помогал в странствиях Персею Гермес, а не Ио (которая вообще из другого мифа). Смертных же спутников у героя не было.
Кассиопея похвалилась собственной красотой, а не красотой своей дочери, чем и навлекла гнев богов.
Чудовище, которому чуть не скормили Андромеду, принадлежало Посейдону, а не Аиду, и не имело имени. Кракен вообще был персонажем скандинавских мифов, а не греческих.
Аид никода не был отрицательным персонажем греческой мифологии. Он был богом Жизни после смерти, воплощением Подземного мира и никогда не посягал на власть над Миром Живых.
Персей пошел добывать голову горгоны Медузы по приказу царя Полидекта, во владениях которого поселился вместе с матерью, а не для того, чтобы спасти Андромеду, с которой познакомился уже после совершения подвига.
После того как Персей спас Андромеду, он женился на ней.
В одном из эпизодов, когда Персей собирается в странствие, в оружейной Аргоса персонаж обращает внимание на механическую сову — камео совы Буббо из фильма 1981 года. Сова — символ богини Афины, так же косвенно помогавшей Персею в его странствиях в одной из версий мифа.
В фильме встречались джинны. Джинны относятся к исламской и доисламской арабской мифологии и в принципе не могли появиться в греческом эпосе о Персее.
Пегас появился уже после убийства горгоны Медузы (вылетел из её тела), и Персей никогда не летал на нём — он использовал для этого крылатые сандалии бога Гермеса.
Акрисий не пытался убить Персея повторно, а наоборот сторонился встречи с ним всеми возможными способами. Погиб он не в битве с Персеем, а на соревнованиях, где присутствовал в качестве зрителя. Диск, брошенный Персеем, по случайности улетел на трибуну и проломил голову Акрисию.
Кефей, Кассиопея и Андромеда были царской семьёй Эфиопии, а не Аргоса.
Зевс не обманом заставил Аида править в подземном мире. Все трое (Аид, Зевс, Посейдон) кинули жребий, кто где будет править.
Скриншоты:



-Гнев Титанов / Wrath of the Titans (2012) BDRemux
«Ощути их ярость»
- Русское название: Гнев Титанов
Оригинальное название: Wrath of the Titans
Год выпуска: 2012
Производство: Legendary Pictures / Warner Bros. Pictures[США]
Жанр: Фэнтези, боевик, приключения
Описание фильма: Спустя десятилетие после героической победы над чудовищным Кракеном Персей пытается жить спокойной жизнью деревенского рыбака и отца-одиночки. В то же время между титанами и богами начинается борьба за власть. Олимпийцы, утратившие былую преданность людей, теряют контроль над тюрьмой, в которой заключены титаны и их глава Кронос. Сила титанов растет, в то время как могущество Зевса слабеет. Силы Аида ищут путь, чтобы прорваться на землю. Персей храбро отправляется в рискованное путешествие по подземному царству, чтобы спасти Зевса, свергнуть титанов и спасти человечество.
Режиссер: Джонатан Либесман
Актеры: Сэм Уортингтон, Лиам Нисон, Рэйф Файнс, Эдгар Рамирез, Тоби Кеббелл, Розамунд Пайк, Билл Найи, Дэнни Хьюстон, Джон Белл, Лили Джеймс-
Дата мировой премьеры: 28 марта 2012
Дата российской премьеры: 29 марта 2012, «Каро-Премьер»
Дата выхода DVD релиза: 12 июля 2012, «CP Дистрибуция»
Дата выхода Blu-Ray релиза: 12 июля 2012, «CP Дистрибуция»-Продолжительность: 01:39:32
Перевод: Дублированный
Субтитры: Вшитые отключаемые
Язык субтитров: Русский (BD, Е. Воронин), английский (полные, SDH)
Качество видео: BDRemux
Видео: MPEG4_AVC/H.264, 1920x1080, ~21,9 Mbps, Bit/Pixel: 0.441
Аудио:
1. Русский: DTS-HD MA, 5.1, 48 kHz, 2730 kbps, 24 bit, (DTS Core: 5.1, 48 kHz, 1509 kbps, 16 bit) |Дубляж Custom|
(Спасибо vit135 )
2. Русский: AC3, 3/2 ch, ~ 448 kb/s / 16-bit |Дубляж c BD CEE|
3. Украинский: AC3, 3/2 ch, ~ 448 kb/s / 16-bit |Дубляж c BD CEE|
4. Английский, DTS-HD MA, 5.1, 48 kHz, 4164 kbps, 24 bit, (DTS Core: 5.1, 48 kHz, 1509 kbps, 24 bit) |Оригинал|
-Главы: имеются (с Blu-ray)

MediaInfo 0.7.61

Общее
Уникальный идентификатор : 183480873813880666345274676546639190826 (0x8A092183522A95AFA0B4930960935B2A)
Полное имя : R:\002\Титаны - дилогия (2010-2012) BDRemux.NNM-CLUB\Wrath of the Titans (2012) BDRemux.NNM-CLUB.mkv
Формат : Matroska
Версия формата : Version 4 / Version 2
Размер файла : 19,3 Гбайт
Продолжительность : 1 ч. 39 м.
Режим общего битрейта : Переменный
Общий поток : 27,8 Мбит/сек
Название фильма : Wrath of the Titans (2012) BDRemux.NNM-CLUB
Дата кодирования : UTC 2013-02-15 17:21:16
Программа кодирования : mkvmerge v6.0.0 ('Coming Up For Air') built on Jan 20 2013 09:52:00
Библиотека кодирования : libebml v1.3.0 + libmatroska v1.4.0
Видео
Идентификатор : 1
Формат : AVC
Формат/Информация : Advanced Video Codec
Профиль формата : High@L4.1
Параметр CABAC формата : Да
Параметр ReFrames формата : 2 кадра
Параметр GOP формата : M=1, N=10
Идентификатор кодека : V_MPEG4/ISO/AVC
Продолжительность : 1 ч. 39 м.
Вид битрейта : Переменный
Битрейт : 22,5 Мбит/сек
Ширина : 1920 пикселей
Высота : 1080 пикселей
Соотношение сторон : 16:9
Режим частоты кадров : Постоянный
Частота кадров : 23,976 кадра/сек
Цветовое пространство : YUV
Субдискретизация насыщенности : 4:2:0
Битовая глубина : 8 бит
Тип развёртки : Прогрессивная
Бит/(Пиксели*Кадры) : 0.453
Размер потока : 15,6 Гбайт (81%)
Заголовок : Wrath of the Titans (2012) BDRemux.NNM-CLUB
Язык : English
Default : Да
Forced : Нет
Аудио #1
Идентификатор : 2
Формат : DTS
Формат/Информация : Digital Theater Systems
Профиль формата : MA / Core
Идентификатор кодека : A_DTS
Продолжительность : 1 ч. 39 м.
Вид битрейта : Переменный
Битрейт : 1561 Кбит/сек / 1510 Кбит/сек
Каналы : 6 каналов
Расположение каналов : Front: L C R, Side: L R, LFE
Частота : 48,0 КГц
Битовая глубина : 16 бит
Метод сжатия : Без потерь / Lossy
Заголовок : Дубляж - DTS-HD MA-5.1
Язык : Russian
Default : Нет
Forced : Нет
Аудио #2
Идентификатор : 3
Формат : AC-3
Формат/Информация : Audio Coding 3
Расширение режима : CM (complete main)
Параметр Endianness формата : Big
Идентификатор кодека : A_AC3
Продолжительность : 1 ч. 39 м.
Вид битрейта : Постоянный
Битрейт : 448 Кбит/сек
Каналы : 6 каналов
Расположение каналов : Front: L C R, Side: L R, LFE
Частота : 48,0 КГц
Битовая глубина : 16 бит
Метод сжатия : С потерями
Размер потока : 319 Мбайт (2%)
Заголовок : Дубляж AC-3
Язык : Russian
Default : Нет
Forced : Нет
Аудио #3
Идентификатор : 4
Формат : AC-3
Формат/Информация : Audio Coding 3
Расширение режима : CM (complete main)
Параметр Endianness формата : Big
Идентификатор кодека : A_AC3
Продолжительность : 1 ч. 39 м.
Вид битрейта : Постоянный
Битрейт : 448 Кбит/сек
Каналы : 6 каналов
Расположение каналов : Front: L C R, Side: L R, LFE
Частота : 48,0 КГц
Битовая глубина : 16 бит
Метод сжатия : С потерями
Размер потока : 319 Мбайт (2%)
Заголовок : Дубляж AC-3
Язык : Ukrainian
Default : Нет
Forced : Нет
Аудио #4
Идентификатор : 5
Формат : DTS
Формат/Информация : Digital Theater Systems
Профиль формата : MA / Core
Идентификатор кодека : A_DTS
Продолжительность : 1 ч. 39 м.
Вид битрейта : Переменный
Битрейт : 2245 Кбит/сек / 1510 Кбит/сек
Каналы : 6 каналов
Расположение каналов : Front: L C R, Side: L R, LFE
Частота : 48,0 КГц
Битовая глубина : 24 бит
Метод сжатия : Без потерь / Lossy
Заголовок : Оригинал
Язык : English
Default : Нет
Forced : Нет
Текст #1
Идентификатор : 6
Формат : UTF-8
Идентификатор кодека : S_TEXT/UTF8
Идентификатор кодека/Информация : UTF-8 Plain Text
Заголовок : Полные - BD CEE
Язык : Russian
Default : Нет
Forced : Нет
Текст #2
Идентификатор : 7
Формат : UTF-8
Идентификатор кодека : S_TEXT/UTF8
Идентификатор кодека/Информация : UTF-8 Plain Text
Заголовок : Полные - Voronine
Язык : Russian
Default : Нет
Forced : Нет
Текст #3
Идентификатор : 8
Формат : UTF-8
Идентификатор кодека : S_TEXT/UTF8
Идентификатор кодека/Информация : UTF-8 Plain Text
Заголовок : Полные
Язык : English
Default : Нет
Forced : Нет
Текст #4
Идентификатор : 9
Формат : UTF-8
Идентификатор кодека : S_TEXT/UTF8
Идентификатор кодека/Информация : UTF-8 Plain Text
Заголовок : SDH
Язык : English
Default : Нет
Forced : Нет
Меню
00:00:00.000 : :Chapter 01
00:09:24.855 : :Chapter 02
00:20:07.122 : :Chapter 03
00:30:53.059 : :Chapter 04
00:40:02.316 : :Chapter 05
00:48:46.882 : :Chapter 06
01:00:21.742 : :Chapter 07
01:10:16.420 : :Chapter 08
01:19:18.712 : :Chapter 09
01:30:33.803 : :Chapter 10
01:39:31.256 : :Chapter 11

Знаете ли Вы, что...

Съёмки фильма проходили в Лондоне, Южном Уэльсе и на Канарском острове Тенерифе.
На роль Андромеды рассматривались Хэйли Этвелл, Джорджина Хэйг, Джанет Монтгомери, Доминик МакЭллигот, Клеманс Поэзи.

Доп. информация:

Русский: DTS-HD HR cделан vit135 из оригинальной DTS-HD MA дорожки и дублированной DD CEE дорожки путём замены всех участков с английской речью, отголосками и эхом на аналогичные с дублированной дорожки во всех каналах.
Скриншоты:




Время раздачи: круглогодичноИграю на аккордеоне за "Спасибо"

[Цитировать]

Лааайк

[Цитировать]

Мазя!!!

[Цитировать]

Спасибо)

[Цитировать]



Показать сообщения:    

Текущее время: 09-Дек 03:04

Часовой пояс: UTC + 3


Вы не можете начинать темы
Вы не можете отвечать на сообщения
Вы не можете редактировать свои сообщения
Вы не можете удалять свои сообщения
Вы не можете голосовать в опросах
Вы не можете прикреплять файлы к сообщениям
Вы не можете скачивать файлы

!ВНИМАНИЕ!
Сайт не предоставляет электронные версии произведений, а занимается лишь коллекционированием и каталогизацией ссылок, присылаемых и публикуемых на форуме нашими читателями. Если вы являетесь правообладателем какого-либо представленного материала и не желаете, чтобы ссылка на него находилась в нашем каталоге, свяжитесь с нами, и мы незамедлительно удалим ее. Файлы для обмена на трекере предоставлены пользователями сайта, и администрация не несет ответственности за их содержание. Просьба не заливать файлы, защищенные авторскими правами, а также файлы нелегального содержания!