[ Сегодня идет свободное скачивание без начисления Download ]


Статистика раздачи
Нет
 
   
 
Top  
 
 
Муси-Пуси / Влюбленная женщина
Rubbeldiekatz / The Woman in Love
-Страна: Германия
Жанр: комедия
Год выпуска: 2011
Продолжительность: 01:53:23-Перевод: Одноголосый (закадровый) Сергей Дидок
Cубтитры: нет
Оригинальная аудиодорожка: нет-Режиссер: Детлев Бук / Detlev Buck
В ролях: Маттиас Швайгхефер, Александра Мария Лара, Детлев Бук, Максимилиан Брюкнер, Денис Москитто, Макс фон Тун, Макс Гиерманн, Санни Меллес, Сюзанна Борман, Милан Пешель-Описание: Незадачливый актёр театра Алекс по стечению обстоятельств получает главную женскую роль в крупном голливудском фильме. Всё осложняется ещё больше, когда он проводит ночь со своей будущей партнёршей по фильму Сарой и влюбляется в неё.- -[-Качество видео: HDRip [Рип с BDRip 720p]
Формат видео: AVI
Видео: 656x352 (1.86:1), 23.976 fps, XviD build 65 ~782 kbps avg, 0.14 bit/pixel
Аудио: 48 kHz, MPEG Layer 3, 2 ch, ~128.00 kbps avg
Сэмпл: http://multi-up.com/831858-

От создателей первой русскоязычной версии фильма

По поводу этого фильма мнения европейских кинокритиков разошлись лишь в одном: первая часть уверена, что эта лента, своего рода, "преемница" и со временем может занять достойное место рядом с такими фильмами, как "В джазе только девушки" и "Тутси". Вторая часть утверждает - это наоборот, качественный стёб над темой "Мужчина в женской одежде". Но все единодушно признали, что фильм получился *Must see*! Немцам действительно удалось снять яркую молодёжную комедию с юмором *на грани фола*. Досталось всем: американской мечте и образу жизни, европейской толерантности к однополой любви, голливудским *оскароносцам*, чванливой "богеме", Адольфу Гитлеру и даже точке "G". Кстати, о *богеме*: в одной из крохотных ролей снялся художник этого фильма - один из наиболее талантливых европейских дизайнеров Гуидо Мария Кретщмер. Не известно, когда и будет ли вообще официальный релиз в России и насколько *спецы* угробят искромётные диалоги на двух языках в этой отвязной комедии, точно знаем одно - фильм "улыбает по-взрослому".

MediaInfo

Complete name : Vljublennaja.zhenshhina.2011.P1.HDRip.745MB.avi
Format : AVI
Format/Info : Audio Video Interleave
File size : 744 MiB
Duration : 1h 53mn
Overall bit rate : 918 Kbps
Movie name : Rubbeldiekatz (2011)
Writing application : VirtualDubMod 1.5.10.3 (build 2550/release)
Copyright : ed_rez
Video
ID : 0
Format : MPEG-4 Visual
Format profile : Advanced [email protected]
Format settings, BVOP : 2
Format settings, QPel : No
Format settings, GMC : No warppoints
Format settings, Matrix : Custom
Muxing mode : Packed bitstream
Codec ID : XVID
Codec ID/Hint : XviD
Duration : 1h 53mn
Bit rate : 783 Kbps
Width : 656 pixels
Height : 352 pixels
Display aspect ratio : 1.85:1
Frame rate : 23.976 fps
Color space : YUV
Chroma subsampling : 4:2:0
Bit depth : 8 bits
Scan type : Progressive
Compression mode : Lossy
Bits/(Pixel*Frame) : 0.141
Stream size : 635 MiB (85%)
Writing library : XviD 65
Audio
ID : 1
Format : MPEG Audio
Format version : Version 1
Format profile : Layer 3
Mode : Joint stereo
Mode extension : MS Stereo
Codec ID : 55
Codec ID/Hint : MP3
Duration : 1h 51mn
Bit rate mode : Constant
Bit rate : 128 Kbps
Channel(s) : 2 channels
Sampling rate : 48.0 KHz
Compression mode : Lossy
Stream size : 102 MiB (14%)
Alignment : Aligned on interleaves
Interleave, duration : 42 ms (1.02 video frame)
Interleave, preload duration : 504 ms
Writing library : LAME3.98.4

Скриншоты


Приятного просмотра!

[Цитировать]



Показать сообщения:    

Текущее время: 06-Дек 15:15

Часовой пояс: UTC + 3


Вы не можете начинать темы
Вы не можете отвечать на сообщения
Вы не можете редактировать свои сообщения
Вы не можете удалять свои сообщения
Вы не можете голосовать в опросах
Вы не можете прикреплять файлы к сообщениям
Вы не можете скачивать файлы

!ВНИМАНИЕ!
Сайт не предоставляет электронные версии произведений, а занимается лишь коллекционированием и каталогизацией ссылок, присылаемых и публикуемых на форуме нашими читателями. Если вы являетесь правообладателем какого-либо представленного материала и не желаете, чтобы ссылка на него находилась в нашем каталоге, свяжитесь с нами, и мы незамедлительно удалим ее. Файлы для обмена на трекере предоставлены пользователями сайта, и администрация не несет ответственности за их содержание. Просьба не заливать файлы, защищенные авторскими правами, а также файлы нелегального содержания!