[ Сегодня идет свободное скачивание без начисления Download ]


Статистика раздачи
Нет
 
   
 
Top  
 
 
Хижина в лесу / The Cabin in the Woods
«Думаете, знакомая история?»

Страна: США
Жанр: Ужасы, фантастика, триллер
Год выпуска: 2011
Продолжительность: 01:35:00-Перевод: Одноголосый закадровый - [Doctor_Joker по переводу romero007
Cубтитры: русские [107miller], английские - [полные отключаемые]
Оригинальная аудиодорожка: английский-Режиссер: Дрю Годдард / Drew Goddard
В ролях: Ричард Дженкинс, Брэдли Уитфорд, Джесси Уильямс, Крис Хемсворт, Фрэн Кранц, Кристин Нора Коннолли, Анна Хатчисон, Брайан Дж. Уайт, Эми Эккер, Джоделль Ферланд, Сигурни Уивер-Описание: Группе друзей, молодым клеркам, предстоит провести ночь в лесу в стенах причудливого дома. За закрытыми дверями происходит что-то странное и ужасное. Молодые люди даже не успевают понять, что именно им угрожает, но единственное, что они знают — что время быстро уходит.-Премьера (мир) - 10 декабря 2011
Рейтинг MPAA ( лицам до 17 лет обязательно присутствие взрослого)- -Качество видео: HDRip - [The.Cabin.In.The.Woods.2011.720p.BluRay.x264-HDEX [PublicHD]]
Формат видео: MKV
Видео: MPEG-4 AVC, 1024x426 (2,40:1), 23,976 кадра/сек, 1544 Кбит/с, 0.148 бит/ пик
Аудио 1: 48 kHz, AC3 Dolby Digital, 2/0 (L,R) ch, 192 Кбит/с- VO
Аудио 2: 48 kHz, AC3 Dolby Digital, 3/2 (L,C,R,l,r) + LFE ch, 448 Кбит/с - ENG
Формат субтитров: softsub (SRT)

MediaInfo

Полное имя : D:\The.Cabin.In.The.Woods.2011.x264.HDRip.mkv
Формат : Matroska
Версия формата : Version 2
Размер файла : 1,45 Гбайт
Продолжительность : 1 ч. 35 м.
Общий поток : 2181 Кбит/сек
Дата кодирования : UTC 2012-08-18 16:24:22
Программа кодирования : mkvmerge v5.5.0 ('Healer') built on Apr 24 2012 23:47:03
Библиотека кодирования : libebml v1.2.3 + libmatroska v1.3.0
Видео
Идентификатор : 1
Формат : AVC
Формат/Информация : Advanced Video Codec
Профиль формата : High@L4.1
Параметр CABAC формата : Да
Параметр ReFrames формата : 10 кадров
Идентификатор кодека : V_MPEG4/ISO/AVC
Продолжительность : 1 ч. 35 м.
Битрейт : 1544 Кбит/сек
Ширина : 1024 пикселя
Высота : 426 пикселей
Соотношение сторон : 2,40:1
Частота кадров : 23,976 кадра/сек
Цветовое пространство : YUV
Субдискретизация насыщенности : 4:2:0
Битовая глубина : 8 бит
Тип развёртки : Прогрессивная
Бит/(Пиксели*Кадры) : 0.148
Размер потока : 1020 Мбайт (69%)
Библиотека кодирования : x264 core 125 r2200 999b753
Настройки программы : cabac=1 / ref=10 / deblock=1:-2:-1 / analyse=0x3:0x133 / me=umh / subme=8 / psy=1 / psy_rd=1.05:0.00 / mixed_ref=1 / me_range=24 / chroma_me=1 / trellis=2 / 8x8dct=1 / cqm=0 / deadzone=21,11 / fast_pskip=0 / chroma_qp_offset=-2 / threads=12 / lookahead_threads=2 / sliced_threads=0 / nr=0 / decimate=1 / interlaced=0 / bluray_compat=0 / constrained_intra=0 / bframes=8 / b_pyramid=2 / b_adapt=2 / b_bias=0 / direct=3 / weightb=1 / open_gop=0 / weightp=2 / keyint=240 / keyint_min=23 / scenecut=40 / intra_refresh=0 / rc=2pass / mbtree=0 / bitrate=1544 / ratetol=1.0 / qcomp=0.60 / qpmin=0 / qpmax=69 / qpstep=4 / cplxblur=20.0 / qblur=0.5 / ip_ratio=1.40 / pb_ratio=1.30 / aq=1:0.80
Язык : English
Default : Да
Forced : Нет
Аудио #1
Идентификатор : 2
Формат : AC-3
Формат/Информация : Audio Coding 3
Расширение режима : CM (complete main)
Идентификатор кодека : A_AC3
Продолжительность : 1 ч. 35 м.
Вид битрейта : Постоянный
Битрейт : 192 Кбит/сек
Каналы : 2 канала
Расположение каналов : Front: L R
Частота : 48,0 КГц
Битовая глубина : 16 бит
Метод сжатия : С потерями
Размер потока : 131 Мбайт (9%)
Заголовок : Doctor_Joker
Язык : Russian
Default : Да
Forced : Нет
Аудио #2
Идентификатор : 3
Формат : AC-3
Формат/Информация : Audio Coding 3
Расширение режима : CM (complete main)
Идентификатор кодека : A_AC3
Продолжительность : 1 ч. 35 м.
Вид битрейта : Постоянный
Битрейт : 448 Кбит/сек
Каналы : 6 каналов
Расположение каналов : Front: L C R, Side: L R, LFE
Частота : 48,0 КГц
Битовая глубина : 16 бит
Метод сжатия : С потерями
Размер потока : 305 Мбайт (21%)
Заголовок : Original Eng
Язык : English
Default : Нет
Forced : Нет
Текст #1
Идентификатор : 4
Формат : UTF-8
Идентификатор кодека : S_TEXT/UTF8
Идентификатор кодека/Информация : UTF-8 Plain Text
Заголовок : FULL
Язык : Russian
Default : Да
Forced : Нет
Текст #2
Идентификатор : 5
Формат : UTF-8
Идентификатор кодека : S_TEXT/UTF8
Идентификатор кодека/Информация : UTF-8 Plain Text
Заголовок : FULL
Язык : English
Default : Нет
Forced : Нет
Меню
00:00:00.000 : en:00:00:00.000
00:09:10.550 : en:00:09:10.550
00:18:42.121 : en:00:18:42.121
00:24:21.251 : en:00:24:21.251
00:33:08.653 : en:00:33:08.653
00:39:39.627 : en:00:39:39.627
00:44:18.614 : en:00:44:18.614
00:51:25.291 : en:00:51:25.291
01:00:24.412 : en:01:00:24.412
01:07:18.034 : en:01:07:18.034
01:15:44.540 : en:01:15:44.540
01:21:32.763 : en:01:21:32.763
01:29:54.639 : en:01:29:54.639

Скриншоты



Знаете ли вы, что...

* Чтобы не позволить сюжетным секретам проникнуть в блогосферу, сценарий пришлось усиленно защищать: создатели фильма написали фальшивые сцены специально для кинопроб исполнителей главных ролей.
* Уист и создатели фильма, исследуя старые фотографии, разработали аутентичный дизайн хижины времен «Золотой лихорадки» или периода после Гражданской войны.
* Декорации центральной аппаратной были созданы в духе хай-тека 70-х и центра управления полетами НАСА в Хьюстоне.
* Дизайнер по костюмам Шона Трпчик отразила контраст между деревенской хижиной и прилизанной центральной аппаратной при помощи тщательно подобранных цветов для одежды молодежи и взрослых
.

[Цитировать]



Показать сообщения:    

Текущее время: 09-Дек 10:47

Часовой пояс: UTC + 3


Вы не можете начинать темы
Вы не можете отвечать на сообщения
Вы не можете редактировать свои сообщения
Вы не можете удалять свои сообщения
Вы не можете голосовать в опросах
Вы не можете прикреплять файлы к сообщениям
Вы не можете скачивать файлы

!ВНИМАНИЕ!
Сайт не предоставляет электронные версии произведений, а занимается лишь коллекционированием и каталогизацией ссылок, присылаемых и публикуемых на форуме нашими читателями. Если вы являетесь правообладателем какого-либо представленного материала и не желаете, чтобы ссылка на него находилась в нашем каталоге, свяжитесь с нами, и мы незамедлительно удалим ее. Файлы для обмена на трекере предоставлены пользователями сайта, и администрация не несет ответственности за их содержание. Просьба не заливать файлы, защищенные авторскими правами, а также файлы нелегального содержания!