[ Сегодня идет свободное скачивание без начисления Download ]


Статистика раздачи
Нет
 
   
 
Top  
 
 
Третий лишний / Ted
Расширенная версия / Unrated
Год выпуска: 2012
Страна: США
Жанр: фэнтези, комедия
Продолжительность: 01:52:15
Перевод:
- одноголосый закадровый (Дасевич по переводу Гоблина)
- одноголосый закадровый (Киреев по переводу Гоблина)
Cубтитры: русские, английские
Режиссер: Сет МакФарлейн / Seth MacFarlane
В ролях: Марк Уолберг, Мила Кунис, Сет МакФарлейн, Джоэль МакХэйл, Джованни Рибизи, Патрик Варбертон, Мэтт Уолш, Джессика Барт, Аэдин Минкс, Билл Смитрович
Описание: Джон влюблен в красавицу Лори, у него отличная работа и большие планы на будущее. Но в их отношения вмешивается третий, давний друг Джона — Тед. Он отрывается сутки напролет, предпочитает случайные связи и не желает терять друга. Но никто на самом деле не знает на что он способен, ведь Тед — большой плюшевый медведь.-Качество: BDRip-AVC (BDRemux @ hdclub)
Формат: MKV
Видео кодек: H.264
Аудио кодек: AC3
Видео: 1132x612 (1.85:1), 3389 kbps, 23.976 fps
Аудио №1: Russian, AC3, 6ch, 48 kHz, 448 kbps (Одноголосый, Дасевич)
Аудио №2: Russian, AC3, 6ch, 48 kHz, 448 kbps (Одноголосый, Киреев)
Аудио №3: English, AC3, 6ch, 48 kHz, 448 kbps (Оригинал)
Субтитры №1: Russian, SRT, Гоблин
Субтитры №2: English, SRT-

MediaInfo

Format : Matroska
Format version : Version 4 / Version 2
File size : 3.71 GiB
Duration : 1h 52mn
Overall bit rate : 4 735 Kbps
Movie name : Ted (2012) BDRip
Encoded date : UTC 2010-02-22 21:41:31
Writing application : mkvmerge v5.9.0 ('On The Loose') built on Dec 9 2012 15:37:01
Writing library : libebml v1.3.0 + libmatroska v1.4.0
Attachment : Yes
Video
ID : 1
Format : AVC
Format/Info : Advanced Video Codec
Format profile : High@L4.1
Format settings, CABAC : Yes
Format settings, ReFrames : 11 frames
Codec ID : V_MPEG4/ISO/AVC
Duration : 1h 52mn
Bit rate : 3 297 Kbps
Width : 1 132 pixels
Height : 612 pixels
Display aspect ratio : 1.85:1
Frame rate mode : Constant
Frame rate : 23.976 fps
Color space : YUV
Chroma subsampling : 4:2:0
Bit depth : 8 bits
Scan type : Progressive
Bits/(Pixel*Frame) : 0.199
Stream size : 2.59 GiB (70%)
Writing library : x264 core 129 r2230kMod 1cffe9f
Encoding settings : cabac=1 / ref=11 / deblock=1:-3:-2 / analyse=0x3:0x133 / me=umh / subme=11 / psy=1 / fade_compensate=0.00 / psy_rd=0.90:0.03 / mixed_ref=1 / me_range=32 / chroma_me=1 / trellis=2 / 8x8dct=1 / cqm=0 / deadzone=21,11 / fast_pskip=0 / chroma_qp_offset=-3 / threads=6 / lookahead_threads=1 / sliced_threads=0 / nr=0 / decimate=1 / interlaced=0 / bluray_compat=0 / constrained_intra=0 / bframes=16 / b_pyramid=2 / b_adapt=2 / b_bias=0 / direct=1 / weightb=1 / open_gop=0 / weightp=2 / keyint=250 / keyint_min=23 / scenecut=40 / intra_refresh=0 / rc_lookahead=40 / rc=crf / mbtree=0 / crf=18.0000 / qcomp=0.65 / qpmin=0 / qpmax=69 / qpstep=4 / vbv_maxrate=50000 / vbv_bufsize=62500 / crf_max=0.0 / nal_hrd=none / ip_ratio=1.40 / pb_ratio=1.20 / aq=2:0.80
Language : English
Default : Yes
Forced : No
Matrix coefficients : BT.709
Audio #1
ID : 2
Format : AC-3
Format/Info : Audio Coding 3
Mode extension : CM (complete main)
Format settings, Endianness : Big
Codec ID : A_AC3
Duration : 1h 52mn
Bit rate mode : Constant
Bit rate : 448 Kbps
Channel(s) : 6 channels
Channel positions : Front: L C R, Side: L R, LFE
Sampling rate : 48.0 KHz
Bit depth : 16 bits
Compression mode : Lossy
Stream size : 360 MiB (9%)
Title : VO (Dasevuch / Goblin)
Language : Russian
Default : Yes
Forced : No
Audio #2
ID : 3
Format : AC-3
Format/Info : Audio Coding 3
Mode extension : CM (complete main)
Format settings, Endianness : Big
Codec ID : A_AC3
Duration : 1h 52mn
Bit rate mode : Constant
Bit rate : 448 Kbps
Channel(s) : 6 channels
Channel positions : Front: L C R, Side: L R, LFE
Sampling rate : 48.0 KHz
Bit depth : 16 bits
Compression mode : Lossy
Stream size : 360 MiB (9%)
Title : VO (Kireev / Goblin)
Language : Russian
Default : No
Forced : No
Audio #3
ID : 4
Format : AC-3
Format/Info : Audio Coding 3
Mode extension : CM (complete main)
Format settings, Endianness : Big
Codec ID : A_AC3
Duration : 1h 52mn
Bit rate mode : Constant
Bit rate : 448 Kbps
Channel(s) : 6 channels
Channel positions : Front: L C R, Side: L R, LFE
Sampling rate : 48.0 KHz
Bit depth : 16 bits
Compression mode : Lossy
Stream size : 360 MiB (9%)
Title : Original
Language : English
Default : No
Forced : No
Text #1
ID : 5
Format : UTF-8
Codec ID : S_TEXT/UTF8
Codec ID/Info : UTF-8 Plain Text
Title : Goblin
Language : Russian
Default : No
Forced : No
Text #2
ID : 6
Format : UTF-8
Codec ID : S_TEXT/UTF8
Codec ID/Info : UTF-8 Plain Text
Language : English
Default : No
Forced : No
Menu
00:00:00.000 : en:00:00:00.000
00:04:15.255 : en:00:04:15.255
00:11:35.069 : en:00:11:35.069
00:17:18.204 : en:00:17:18.204
00:21:47.514 : en:00:21:47.514
00:28:31.376 : en:00:28:31.376
00:34:01.331 : en:00:34:01.331
00:37:43.553 : en:00:37:43.553
00:44:59.155 : en:00:44:59.155
00:52:13.171 : en:00:52:13.171
00:57:34.826 : en:00:57:34.826
01:03:45.280 : en:01:03:45.280
01:08:43.244 : en:01:08:43.244
01:13:21.522 : en:01:13:21.522
01:18:08.892 : en:01:18:08.892
01:22:39.496 : en:01:22:39.496
01:29:17.101 : en:01:29:17.101
01:37:26.465 : en:01:37:26.465
01:41:08.687 : en:01:41:08.687
01:46:46.608 : en:01:46:46.608

x264 log

x264 [info]: frame I:1600 Avg QP:15.76 size:117031
x264 [info]: frame P:32031 Avg QP:17.81 size: 33101
x264 [info]: frame B:127852 Avg QP:19.38 size: 12557
x264 [info]: consecutive B-frames: 1.8% 1.4% 5.1% 13.1% 17.7% 52.2% 4.8% 0.9% 0.7% 0.8% 0.4% 0.3% 0.1% 0.5% 0.1% 0.0% 0.0%
x264 [info]: mb I I16..4: 6.2% 76.2% 17.6%
x264 [info]: mb P I16..4: 0.6% 8.8% 1.3% P16..4: 30.2% 35.4% 14.8% 2.3% 0.2% skip: 6.5%
x264 [info]: mb B I16..4: 0.1% 1.0% 0.2% B16..8: 34.6% 21.2% 3.4% direct: 5.1% skip:34.5% L0:44.8% L1:43.4% BI:11.8%
x264 [info]: 8x8 transform intra:79.8% inter:60.7%
x264 [info]: coded y,uvDC,uvAC intra: 89.7% 91.2% 79.7% inter: 25.0% 23.6% 8.8%
x264 [info]: i16 v,h,dc,p: 28% 10% 12% 50%
x264 [info]: i8 v,h,dc,ddl,ddr,vr,hd,vl,hu: 12% 9% 7% 10% 13% 13% 13% 12% 13%
x264 [info]: i4 v,h,dc,ddl,ddr,vr,hd,vl,hu: 30% 8% 5% 7% 11% 10% 10% 8% 9%
x264 [info]: i8c dc,h,v,p: 43% 23% 17% 17%
x264 [info]: Weighted P-Frames: Y:1.9% UV:0.9%
x264 [info]: ref P L0: 44.6% 9.0% 18.9% 6.8% 5.9% 4.0% 3.8% 1.9% 1.9% 1.5% 1.6% 0.1% 0.0%
x264 [info]: ref B L0: 67.5% 13.7% 6.8% 3.7% 2.6% 2.2% 1.7% 1.1% 0.6% 0.3%
x264 [info]: ref B L1: 90.8% 9.2%
x264 [info]: kb/s:3388.69
x264 [info]: encoded 161483 frames, 6.08 fps, 3388.69 kb/s, duration 7:22:19.15
-
-

[Цитировать]

Топик был перенесен из форума Фэнтези в форум Архив
D-r Woland_kz



Показать сообщения:    

Текущее время: 24-Июн 18:22

Часовой пояс: UTC + 6


Вы не можете начинать темы
Вы не можете отвечать на сообщения
Вы не можете редактировать свои сообщения
Вы не можете удалять свои сообщения
Вы не можете голосовать в опросах
Вы не можете прикреплять файлы к сообщениям
Вы не можете скачивать файлы

!ВНИМАНИЕ!
Сайт не предоставляет электронные версии произведений, а занимается лишь коллекционированием и каталогизацией ссылок, присылаемых и публикуемых на форуме нашими читателями. Если вы являетесь правообладателем какого-либо представленного материала и не желаете, чтобы ссылка на него находилась в нашем каталоге, свяжитесь с нами, и мы незамедлительно удалим ее. Файлы для обмена на трекере предоставлены пользователями сайта, и администрация не несет ответственности за их содержание. Просьба не заливать файлы, защищенные авторскими правами, а также файлы нелегального содержания!